Aktualizacje seriali
 



Ogłoszenia
UFS - dotacje
Dotacje SMS
Jak korzystać z forumowej szukajki



Pokaż wyniki od 1 do 2 z 2

Wątek: ATM [2011][HDRip][AC3][ENG]

  1. #1
    Retired Awatar Look
     Info : 
    Dołączył
    Jan 2008
    Posty
    4,495
     Podziękowania : 
    Podziękował: 922
    Doceniono: 20,527 razy w 334 postach
     UFS Stats Uploady : 
    Filmy: 595
    Gry: 59
    Programy: 1
    TV's: 72
    Muzyka: 13
    Porno: 1
    Inne: 4
     UFS Stats Konta : 
    Gmail: 172
    Inne: 121
     Total Upload : 
    P2M UP: 2456.2 GB
     Total CA : 
    Total CA: 8670 AC
    Look jest nieaktywny

    mh ATM [2011][HDRip][AC3][ENG]

    ATM



    Produkcja: USA
    Gatunek: Thriller
    Data premiery: 2011
    Reżyseria: David Brooks
    Scenariusz: Chris Sparling
    Czas trwania:
    Ocena:




    On a late night visit to an ATM, three co-workers end up in a desperate fight for their lives when they become trapped by an unknown man.


    Alice Eve - Emily
    Josh Peck - Corey
    Brian Geraghty - David
    Will Woytowich - Sargent
    Aaron Hughes - Strażnik
    Glen Thompson - Harold
    Robert Huculak - Robert
    Steve Nagribianko - BGP






    Video
    ID : 0
    Format : MPEG-4 Visual
    Format profile : Advanced Simple@L5
    Format settings, BVOP : 2
    Format settings, QPel : No
    Format settings, GMC : No warppoints
    Format settings, Matrix : Default (H.263)
    Muxing mode : Packed bitstream
    Codec ID : XVID
    Codec ID/Hint : XviD
    Duration : 1h 30mn
    Bit rate : 1 775 Kbps
    Width : 720 pixels
    Height : 400 pixels
    Display aspect ratio : 16:9
    Frame rate : 23.976 fps
    Color space : YUV
    Chroma subsampling : 4:2:0
    Bit depth : 8 bits
    Scan type : Progressive
    Compression mode : Lossy
    Bits/(Pixel*Frame) : 0.257
    Stream size : 1.12 GiB (82%)
    Writing library : XviD 1.1.2 (UTC 2006-11-01)

    Audio
    ID : 1
    Format : AC-3
    Format/Info : Audio Coding 3
    Mode extension : CM (complete main)
    Codec ID : 2000
    Duration : 1h 30mn
    Bit rate mode : Constant
    Bit rate : 384 Kbps
    Channel(s) : 6 channels
    Channel positions : Front: L C R, Side: L R, LFE
    Sampling rate : 48.0 KHz
    Bit depth : 16 bits
    Compression mode : Lossy
    Stream size : 248 MiB (18%)



    Nazwa pliku:
    Ilość plików na koncie: 200
    Rozmiar segmentu: 7
    Wielkość uploadu: 1.4GB
    Ilość mirrorów: 9
    Hasło: www.ufs.pl






    Przepraszamy, ale nie możesz zobaczyć tego tematu. Musisz sie Zarejestrować
    albo Zalogować




    Created by URG2 Beta 1.1.2 by PoziomeQ


    MEMBER > FULL MEMBER > UFS TRIAL > KREATOR > FULL MEMBER > UFS TRIAL > UPLOADER > SUPER UPLOADER > UFS ELITE>MODERATOR>


    +


  2.    Sponsored Links




  3. #2
    Retired Awatar filout
     Info : 
    Dołączył
    Feb 2008
    Posty
    1,695
     Podziękowania : 
    Podziękował: 264
    Doceniono: 10 razy w 8 postach
    filout jest nieaktywny

    Domyślnie

    niezatwierdzone
    każdy problem ma rozwiązanie
    jeśli nie ma rozwiązania to nie ma problemu

Informacje o wątku

Użytkownicy przeglądający ten wątek

Aktualnie 1 użytkownik(ów) przegląda ten wątek. (0 zarejestrowany(ch) oraz 1 gości)

Podobne wątki

  1. Not Another Not Another Movie [2011][HDRip][AC3][ENG]
    Przez Santi w dziale HQ (High Quality - Wysoka Jakość)
    Odpowiedzi: 1
    Ostatni post / autor: 01-09-2011, 22:52
  2. Scream 4 [2011][HDRip][ENG]
    Przez Santi w dziale HQ (High Quality - Wysoka Jakość)
    Odpowiedzi: 1
    Ostatni post / autor: 24-07-2011, 11:08
  3. Ecstasy [2011][HDRip][ENG]
    Przez Yaro w dziale HQ (High Quality - Wysoka Jakość)
    Odpowiedzi: 4
    Ostatni post / autor: 25-06-2011, 16:27

Uprawnienia umieszczania postów

  • Nie możesz zakładać nowych tematów
  • Nie możesz pisać wiadomości
  • Nie możesz dodawać załączników
  • Nie możesz edytować swoich postów
  •