Aktualizacje seriali
 



Ogłoszenia
UFS - dotacje
Dotacje SMS
Jak korzystać z forumowej szukajki



Pokaż wyniki od 1 do 2 z 2

Wątek: Eldorado [2012][DVDRip][ENG]

  1. #1
    Retired Awatar Look
     Info : 
    Dołączył
    Jan 2008
    Posty
    4,495
     Podziękowania : 
    Podziękował: 922
    Doceniono: 20,529 razy w 334 postach
     UFS Stats Uploady : 
    Filmy: 595
    Gry: 59
    Programy: 1
    TV's: 72
    Muzyka: 13
    Porno: 1
    Inne: 4
     UFS Stats Konta : 
    Gmail: 172
    Inne: 121
     Total Upload : 
    P2M UP: 2456.2 GB
     Total CA : 
    Total CA: 8670 AC
    Look jest nieaktywny

    mh Eldorado [2012][DVDRip][ENG]

    Eldorado



    Produkcja: USA
    Gatunek: Comedy | Horror | Musical | Western
    Data premiery: 2012
    Reżyseria: Richard Driscoll
    Scenariusz: Francois Coppey
    Czas trwania: 99
    Ocena:




    The Stranger, a tall striking creature dressed in white sets into motions a series of events whilst reciting the Edgar Allen Poe Poem "Eldorado", which will have an effect on those heading towards the mythical city. The evening was going to be a normal Blues Brothers tribute gig for Oliver and Stanley Rosenblum, The Jews Brothers at a local Bar Mitzvah, but things were not going to go to plan for Stan and Ollie. After being wrongly sent to entertain the annual conference of Neo Nazi's instead of the stripper, which was sent to the Bar Mitzvah by their inept Manager JJ. The Jews Brothers are chased out of town by the head of the Californian Chapter of Neo Nazi's General Zwick, and after contacting their agent JJ who makes amends for the mix up by sending the boys and the stripper Lesley Dean to do a show at the Eldorado Festival. This sets in motion a series of events...



    Daryl Hannah,
    Peter O'Toole,
    Michael Madsen,
    David Carradine,
    Jeff Fahey,
    Brigitte Nielsen,
    Patrick Bergin, Steve
    Guttenberg






    Format: AVI
    Format/Info: Audio Video Interleave
    File size: 1.37 GiB
    Duration: 1h 55mn
    Overall bit rate: 1 694 Kbps
    Writing application: VirtualDubMod 1.5.10.2 (build 2540/release)
    Writing library: VirtualDubMod build 2540/release

    Video
    ID: 0
    Format: MPEG-4 Visual
    Format profile: Advanced Simple@L5
    Format settings, BVOP: 2
    Format settings, QPel: No
    Format settings, GMC: No warppoints
    Format settings, Matrix: Default (H.263)
    Codec ID: XVID
    Codec ID/Hint: XviD
    Duration: 1h 55mn
    Bit rate: 1 236 Kbps
    Width: 640 pixels
    Height: 352 pixels
    Display aspect ratio: 16:9
    Frame rate: 25.000 fps
    Color space: YUV
    Chroma subsampling: 4:2:0
    Bit depth: 8 bits
    Scan type: Progressive
    Compression mode: Lossy
    Bits/(Pixel*Frame): 0.220
    Stream size: 1 020 MiB (73%)
    Writing library: XviD 61

    Audio
    ID: 1
    Format: AC-3
    Format/Info: Audio Coding 3
    Mode extension: CM (complete main)
    Codec ID: 2000
    Duration: 1h 55mn
    Bit rate mode: Constant
    Bit rate: 448 Kbps
    Channel(s): 6 channels
    Channel positions: Front: L C R, Side: L R, LFE
    Sampling rate: 48.0 KHz
    Bit depth: 16 bits
    Compression mode: Lossy
    Stream size: 370 MiB (26%)
    Alignment: Split accross interleaves
    Interleave, duration: 40 ms (1.00 video frame)
    Interleave, preload duration: 500 ms



    Nazwa pliku:eldorado.avi
    Ilość plików na koncie: 2x 100
    Rozmiar segmentu: 7
    Wielkość uploadu: 1,4GB
    Ilość mirrorów: 2x 9
    Hasło: www.ufs.pl






    Przepraszamy, ale nie możesz zobaczyć tego tematu. Musisz sie Zarejestrować
    albo Zalogować




    Created by URG2 Beta 1.1.2 by PoziomeQ
    Ostatnio edytowane przez Pumbek ; 02-03-2012 o 23:59


    MEMBER > FULL MEMBER > UFS TRIAL > KREATOR > FULL MEMBER > UFS TRIAL > UPLOADER > SUPER UPLOADER > UFS ELITE>MODERATOR>


    +


  2.    Sponsored Links




  3. #2
    CHELSEA LONDYN & BROOKLYN NETS <3 Awatar Pumbek
     Info : 
    Dołączył
    Jan 2007
    Skąd
    ZCH
    Posty
    4,344
     Podziękowania : 
    Podziękował: 794
    Doceniono: 24,665 razy w 540 postach
     UFS Stats Uploady : 
    Filmy: 568
    Gry: 201
    Programy: 17
    TV's: 167
    Muzyka: 70
    Porno: 15
    Inne: 7
    Małe uploady: 7
     UFS Stats Konta : 
    Gmail: 107
    Inne: 124
     Total Upload : 
    P2M UP: 4800.15 GB
     Total CA : 
    Total CA: 15070 AC
    Pumbek jest nieaktywny

    Domyślnie

    niezatwierdzone
    Ostatnio edytowane przez Pumbek ; 03-03-2012 o 00:00
    ..::Member -> Full Member -> UFS Trial -> UFS Kreator -> Full Member -> UFS Uploader -> Super Uploader -> UFS Elite -> SUPER VIP -> UFS Elite -> Moderator -> Super Moderator -> UFS MASTER ->Super Moderator ->Retired -> Super Moderator -> Retired ::..

Informacje o wątku

Użytkownicy przeglądający ten wątek

Aktualnie 1 użytkownik(ów) przegląda ten wątek. (0 zarejestrowany(ch) oraz 1 gości)

Uprawnienia umieszczania postów

  • Nie możesz zakładać nowych tematów
  • Nie możesz pisać wiadomości
  • Nie możesz dodawać załączników
  • Nie możesz edytować swoich postów
  •