Aktualizacje seriali
 



Ogłoszenia
UFS - dotacje
Dotacje SMS
Jak korzystać z forumowej szukajki



Pokaż wyniki od 1 do 2 z 2

Wątek: Carlito's Way [1993][BRRip][ENG]

  1. #1
    Retired Awatar Look
     Info : 
    Dołączył
    Jan 2008
    Posty
    4,498
     Podziękowania : 
    Podziękował: 925
    Doceniono: 20,534 razy w 334 postach
     UFS Stats Uploady : 
    Filmy: 595
    Gry: 59
    Programy: 1
    TV's: 72
    Muzyka: 13
    Porno: 1
    Inne: 4
     UFS Stats Konta : 
    Gmail: 172
    Inne: 121
     Total Upload : 
    P2M UP: 2456.2 GB
     Total CA : 
    Total CA: 8670 AC
    Look jest nieaktywny

    mh Carlito's Way [1993][BRRip][ENG]

    Carlito's Way



    Produkcja: USA
    Gatunek: Dramat | Kryminał | Thriller
    Data premiery: 1994-06-24 (kino), 1993-11-10 (świat), 2004-03-04 (dvd)
    Reżyseria: Brian De Palma
    Scenariusz: Edwin Torres (powieść), David Koepp
    Czas trwania: 145 minut
    Ocena: 8.0




    Carlito Brigante (Al Pacino) po długoletnim pobycie w więzieniu za handel heroiną, zostaje wypuszczony. Postanawia zacząć nowe życie. Kupuje nocny bar i odkłada pieniądze, za które ma zamiar przenieść się na Bahamy. Niestety zbieg okoliczności zmusza go, do powrótu do swojego poprzedniego stylu życia. (opis dystrybutora)


    Al Pacino - Carlito "Charlie" Brigante
    Sean Penn - David Kleinfeld
    Penelope Ann Miller - Gail
    John Leguizamo - Benny Blanco
    Ingrid Rogers - Steffie
    Luis Guzmán - Pachanga
    James Rebhorn - Norwalk, prokurator okręgowy
    Joseph Siravo - Vincent "Vinnie" Taglialucci







    General
    Complete name : Carlito's Way 1993 BRrip.mp4
    Format : MPEG-4
    Format profile : Base Media / Version 2
    Codec ID : mp42
    File size : 1.50 GiB
    Duration : 2h 24mn
    Overall bit rate mode : Variable
    Overall bit rate : 1 490 Kbps
    Encoded date : UTC 2010-07-21 21:57:05
    Tagged date : UTC 2010-07-21 21:57:05
    Writing application : Yamb 2.1.0.0

    Video
    ID : 1
    Format : AVC
    Format/Info : Advanced Video Codec
    Format profile : High@L4.1
    Format settings, CABAC : Yes
    Format settings, ReFrames : 3 frames
    Codec ID : avc1
    Codec ID/Info : Advanced Video Coding
    Duration : 2h 24mn
    Bit rate : 1 035 Kbps
    Maximum bit rate : 2 624 Kbps
    Width : 720 pixels
    Height : 304 pixels
    Display aspect ratio : 2.35:1
    Frame rate mode : Constant
    Frame rate : 23.976 fps
    Color space : YUV
    Chroma subsampling : 4:2:0
    Bit depth : 8 bits
    Scan type : Progressive
    Bits/(Pixel*Frame) : 0.197
    Stream size : 1.04 GiB (69%)

    Audio #1
    ID : 2
    Format : AAC
    Format/Info : Advanced Audio Codec
    Format profile : LC
    Codec ID : 40
    Duration : 2h 24mn
    Bit rate mode : Variable
    Bit rate : 321 Kbps
    Maximum bit rate : 334 Kbps
    Channel(s) : 6 channels
    Channel positions : Front: L C R, Side: L R, LFE
    Sampling rate : 48.0 KHz
    Compression mode : Lossy
    Stream size : 331 MiB (22%)
    Encoded date : UTC 2010-07-21 21:58:04
    Tagged date : UTC 2010-07-21 21:58:50

    Audio #2
    ID : 3
    Format : AAC
    Format/Info : Advanced Audio Codec
    Format profile : LC
    Codec ID : 40
    Duration : 2h 24mn
    Bit rate mode : Variable
    Bit rate : 129 Kbps
    Maximum bit rate : 137 Kbps
    Channel(s) : 2 channels
    Channel positions : Front: L R
    Sampling rate : 48.0 KHz
    Compression mode : Lossy
    Stream size : 133 MiB (9%)
    Encoded date : UTC 2010-07-21 21:58:34
    Tagged date : UTC 2010-07-21 21:58:50



    Nazwa pliku:carlitos.avi
    Ilość plików na koncie: 220
    Rozmiar segmentu: 7
    Wielkość uploadu: 1,5GB
    Ilość mirrorów: 9
    Hasło: www.ufs.pl






    Przepraszamy, ale nie możesz zobaczyć tego tematu. Musisz sie Zarejestrować
    albo Zalogować




    Created by URG2 Beta 1.1.2 by PoziomeQ


    MEMBER > FULL MEMBER > UFS TRIAL > KREATOR > FULL MEMBER > UFS TRIAL > UPLOADER > SUPER UPLOADER > UFS ELITE>MODERATOR>


    +


  2.    Sponsored Links




  3. #2
    Uwaga k0 bieta Awatar Silka
     Info : 
    Dołączył
    Mar 2008
    Skąd
    śląsk
    Posty
    2,256
     Podziękowania : 
    Podziękował: 14
    Doceniono: 216 razy w 74 postach
     UFS Stats Uploady : 
    Filmy: 51
    Gry: 9
    Programy: 7
    TV's: 156
    Muzyka: 139
    Inne: 1
    Małe uploady: 8
     UFS Stats Konta : 
    Gmail: 14
    Inne: 20
     Total Upload : 
    P2M UP: 271.3 GB
     Total CA : 
    Total CA: 495 AC
    Silka jest nieaktywny

    Domyślnie

    niezatwierdzone
    Ostatnio edytowane przez Silka ; 02-03-2012 o 21:47




    "...Jeśli któregoś dnia, ktoś zarzuci Ci, że Twoja praca nie jest profesjonalna, powiedz sobie, że Arkę Noego zbudowali amatorzy a Titanic'a profesjonaliści..."



    Trial -> 31.01.10 Uploader -> 14.09.10 Elita -> 6.11.10 Moderator -> 11.06.12 Retired -> 11.11.12 Elita ->21.04.2013 Retired

    Mail Resender



Informacje o wątku

Użytkownicy przeglądający ten wątek

Aktualnie 1 użytkownik(ów) przegląda ten wątek. (0 zarejestrowany(ch) oraz 1 gości)

Podobne wątki

  1. Carlito's Way (Życie Carlita) [DVDRip] [1993]
    Przez Skrydka w dziale HQ (High Quality - Wysoka Jakość)
    Odpowiedzi: 1
    Ostatni post / autor: 19-11-2012, 15:04

Uprawnienia umieszczania postów

  • Nie możesz zakładać nowych tematów
  • Nie możesz pisać wiadomości
  • Nie możesz dodawać załączników
  • Nie możesz edytować swoich postów
  •