Aktualizacje seriali
 



Ogłoszenia
UFS - dotacje
Dotacje SMS
Jak korzystać z forumowej szukajki



Pokaż wyniki od 1 do 2 z 2

Wątek: Tau man ji D [2005][BRRip][ENG]

  1. #1
    Retired Awatar Look
     Info : 
    Dołączył
    Jan 2008
    Posty
    4,495
     Podziękowania : 
    Podziękował: 922
    Doceniono: 20,525 razy w 334 postach
     UFS Stats Uploady : 
    Filmy: 595
    Gry: 59
    Programy: 1
    TV's: 72
    Muzyka: 13
    Porno: 1
    Inne: 4
     UFS Stats Konta : 
    Gmail: 172
    Inne: 121
     Total Upload : 
    P2M UP: 2456.2 GB
     Total CA : 
    Total CA: 8670 AC
    Look jest nieaktywny

    mh Tau man ji D [2005][BRRip][ENG]

    Tau man ji D



    Produkcja: Chiny | Hongkong
    Gatunek: Akcja | Kryminał | Dramat | Thriller
    Data premiery: 2005-06-19 (świat)
    Reżyseria: Alan Mak, Wai Keung Lau
    Scenariusz: Felix Chong
    Czas trwania: 107 minut
    Ocena: 6.9




    Osiemnastoletni Takumi Fujiwara wraz z ojcem Buntą, prowadzą sklep z dostawą tofu. Od 5 lat Takumi rozwozi ser sojowy. Staje się on bardzo dobrym kierowcą. Ryousuke Takahashi oraz Takeshi Nakazato rywalizują ze sobą w ulicznych wyścigach. Pewnego dnia Fujiwara staje naprzeciw nich i wchodzi w świat "nocnych walk". Tak rozpoczyna się początek legendy najszybszego kierowcy na Mt. Akina. (hentajowy)


    Anne Suzuki - Natsuki Mogi
    Chapman To - Itsuki Tachibana
    Jordan Chan - Kyouichi Sudou
    Anthony Wong Chau-Sang - Bunta Fujiwara
    Jay Chou - Takumi Fujiwara
    Shawn Yue - Takeshi Nakazato
    Kenny Bee - Yuuichi Tachibana
    Kazuyuki Tsumura...






    Video
    ID : 0
    Format : MPEG-4 Visual
    Format profile : Simple@L1
    Format settings, BVOP : No
    Format settings, QPel : No
    Format settings, GMC : No warppoints
    Format settings, Matrix : Default (H.263)
    Codec ID : XVID
    Codec ID/Hint : XviD
    Duration : 1h 48mn
    Bit rate : 737 Kbps
    Width : 704 pixels
    Height : 304 pixels
    Display aspect ratio : 2.35:1
    Frame rate : 24.000 fps
    Color space : YUV
    Chroma subsampling : 4:2:0
    Bit depth : 8 bits
    Scan type : Progressive
    Bits/(Pixel*Frame) : 0.143
    Stream size : 574 MiB (84%)
    Writing library : Lavc51.44.0

    Audio
    ID : 1
    Format : MPEG Audio
    Format version : Version 1
    Format profile : Layer 3
    Codec ID : 55
    Codec ID/Hint : MP3
    Duration : 1h 48mn
    Bit rate mode : Constant
    Bit rate : 128 Kbps
    Channel(s) : 2 channels
    Sampling rate : 44.1 KHz
    Stream size : 99.7 MiB (15%)
    Alignment : Aligned on interleaves
    Interleave, duration : 26 ms (0.63 video frame)
    Interleave, preload duration : 522 ms
    Writing library : LAME3.98



    Nazwa pliku:Tau man ji D (2005).BDRip.XviD-WDR.avi
    Ilość plików na koncie: 100
    Rozmiar segmentu: 7
    Wielkość uploadu: 700
    Ilość mirrorów: 9
    Hasło: www.ufs.pl






    Przepraszamy, ale nie możesz zobaczyć tego tematu. Musisz sie Zarejestrować
    albo Zalogować




    Created by URG2 Beta 1.1.2 by PoziomeQ


    MEMBER > FULL MEMBER > UFS TRIAL > KREATOR > FULL MEMBER > UFS TRIAL > UPLOADER > SUPER UPLOADER > UFS ELITE>MODERATOR>


    +


  2.    Sponsored Links




  3. #2
    Full Member Awatar Novy
     Info : 
    Dołączył
    Jun 2010
    Skąd
    Stamtąd
    Posty
    5,953
     Podziękowania : 
    Podziękował: 588
    Doceniono: 42,187 razy w 871 postach
     UFS Stats Uploady : 
    Filmy: 147
    Gry: 143
    Programy: 18
    TV's: 40
    Muzyka: 18
    Porno: 869
    Inne: 2
    Małe uploady: 17
     UFS Stats Konta : 
    Gmail: 41
    Inne: 216
     Total Upload : 
    P2M UP: 2181.55 GB
     Total CA : 
    Total CA: 4105 AC
    Novy jest nieaktywny

    Domyślnie

    niezatwierdzone
    Ostatnio edytowane przez Novy ; 01-03-2012 o 13:55

Informacje o wątku

Użytkownicy przeglądający ten wątek

Aktualnie 1 użytkownik(ów) przegląda ten wątek. (0 zarejestrowany(ch) oraz 1 gości)

Uprawnienia umieszczania postów

  • Nie możesz zakładać nowych tematów
  • Nie możesz pisać wiadomości
  • Nie możesz dodawać załączników
  • Nie możesz edytować swoich postów
  •