Aktualizacje seriali
 



Ogłoszenia
UFS - dotacje
Dotacje SMS
Jak korzystać z forumowej szukajki



Pokaż wyniki od 1 do 2 z 2

Wątek: Camel Spiders [2011][DVDRip][AC3][ENG]

  1. #1
    Retired Awatar Look
     Info : 
    Dołączył
    Jan 2008
    Posty
    4,498
     Podziękowania : 
    Podziękował: 925
    Doceniono: 20,534 razy w 334 postach
     UFS Stats Uploady : 
    Filmy: 595
    Gry: 59
    Programy: 1
    TV's: 72
    Muzyka: 13
    Porno: 1
    Inne: 4
     UFS Stats Konta : 
    Gmail: 172
    Inne: 121
     Total Upload : 
    P2M UP: 2456.2 GB
     Total CA : 
    Total CA: 8670 AC
    Look jest nieaktywny

    mh Camel Spiders [2011][DVDRip][AC3][ENG]

    Camel Spiders



    Produkcja: USA
    Gatunek: Horror | Sci-Fi
    Data premiery: 2011-10-12 (kino), 2012-01-03 (świat)
    Reżyseria: Jim Wynorski
    Scenariusz: Jim Wynorski, J. Brad Wilke
    Czas trwania: 79 minut
    Ocena: 5.9




    W ciele zabitego żołnierza do USA przetransportowane zostają pająki wielbłądzie. Pajęczaki szybko się rozmnażają i dzięki swoim rozmiarom i jadowi zaczynają polować na znajdujących się w okolicy ludzi. (derik1984)


    Brian Krause - Sturges
    C. Thomas Howell - Szeryf Beaumont
    GiGi Erneta - Reba
    Diana Terranova - Patty
    Jon Mack - Sharon






    General
    Complete name : Camel.Spiders.2011.DVDRiP.AC3-5.1.XviD-SiC.avi
    Format : AVI
    Format/Info : Audio Video Interleave
    File size : 1.37 GiB
    Duration : 1h 24mn
    Overall bit rate : 2 319 Kbps

    Video
    ID : 0
    Format : MPEG-4 Visual
    Format profile : Advanced Simple@L5
    Format settings, BVOP : 1
    Format settings, QPel : No
    Format settings, GMC : No warppoints
    Format settings, Matrix : Default (H.263)
    Codec ID : XVID
    Codec ID/Hint : XviD
    Duration : 1h 24mn
    Bit rate : 1 928 Kbps
    Width : 656 pixels
    Height : 368 pixels
    Display aspect ratio : 16:9
    Frame rate : 23.976 fps
    Color space : YUV
    Chroma subsampling : 4:2:0
    Bit depth : 8 bits
    Scan type : Progressive
    Compression mode : Lossy
    Bits/(Pixel*Frame) : 0.333
    Stream size : 1.14 GiB (83%)
    Writing library : XviD 1.2.1 (UTC 2008-12-04)

    Audio
    ID : 1
    Format : AC-3
    Format/Info : Audio Coding 3
    Mode extension : CM (complete main)
    Codec ID : 2000
    Duration : 1h 24mn
    Bit rate mode : Constant
    Bit rate : 384 Kbps
    Channel(s) : 6 channels
    Channel positions : Front: L C R, Side: L R, LFE
    Sampling rate : 48.0 KHz
    Bit depth : 16 bits
    Compression mode : Lossy
    Stream size : 233 MiB (17%)
    Alignment : Aligned on interleaves
    Interleave, duration : 64 ms (1.53 video frames)
    Interleave, preload duration : 960 ms
    Title : VTS_02_1 T80 3_2ch 448Kbps DELAY 0ms_new



    Nazwa pliku: cs.avi
    Ilość plików na koncie: 200
    Rozmiar segmentu: 7
    Wielkość uploadu: 1,4GB
    Ilość mirrorów: 9
    Hasło: www.ufs.pl






    Przepraszamy, ale nie możesz zobaczyć tego tematu. Musisz sie Zarejestrować
    albo Zalogować




    Created by URG2 Beta 1.1.2 by PoziomeQ
    Ostatnio edytowane przez Novy ; 29-02-2012 o 20:50


    MEMBER > FULL MEMBER > UFS TRIAL > KREATOR > FULL MEMBER > UFS TRIAL > UPLOADER > SUPER UPLOADER > UFS ELITE>MODERATOR>


    +


  2.    Sponsored Links




  3. #2
    Full Member Awatar Novy
     Info : 
    Dołączył
    Jun 2010
    Skąd
    Stamtąd
    Posty
    5,953
     Podziękowania : 
    Podziękował: 588
    Doceniono: 42,191 razy w 871 postach
     UFS Stats Uploady : 
    Filmy: 147
    Gry: 143
    Programy: 18
    TV's: 40
    Muzyka: 18
    Porno: 869
    Inne: 2
    Małe uploady: 17
     UFS Stats Konta : 
    Gmail: 41
    Inne: 216
     Total Upload : 
    P2M UP: 2181.55 GB
     Total CA : 
    Total CA: 4105 AC
    Novy jest nieaktywny

    Domyślnie

    niezatwierdzone
    Ostatnio edytowane przez Novy ; 29-02-2012 o 20:49

Informacje o wątku

Użytkownicy przeglądający ten wątek

Aktualnie 1 użytkownik(ów) przegląda ten wątek. (0 zarejestrowany(ch) oraz 1 gości)

Uprawnienia umieszczania postów

  • Nie możesz zakładać nowych tematów
  • Nie możesz pisać wiadomości
  • Nie możesz dodawać załączników
  • Nie możesz edytować swoich postów
  •