Aktualizacje seriali
 



Ogłoszenia
UFS - dotacje
Dotacje SMS
Jak korzystać z forumowej szukajki



Pokaż wyniki od 1 do 2 z 2

Wątek: This must be the place [2011][BRRip][ENG]

  1. #1
    Retired Awatar Look
     Info : 
    Dołączył
    Jan 2008
    Posty
    4,498
     Podziękowania : 
    Podziękował: 925
    Doceniono: 20,534 razy w 334 postach
     UFS Stats Uploady : 
    Filmy: 595
    Gry: 59
    Programy: 1
    TV's: 72
    Muzyka: 13
    Porno: 1
    Inne: 4
     UFS Stats Konta : 
    Gmail: 172
    Inne: 121
     Total Upload : 
    P2M UP: 2456.2 GB
     Total CA : 
    Total CA: 8670 AC
    Look jest nieaktywny

    mh This must be the place [2011][BRRip][ENG]

    Wszystkie odloty Cheyenne'a



    Produkcja: Francja | Irlandia | Włochy
    Gatunek: Dramat | Kryminał | Thriller
    Data premiery: 2012-03-16 (kino), 2011-05-20 (świat)
    Reżyseria: Paolo Sorrentino
    Scenariusz: Paolo Sorrentino, Umberto Contarello
    Czas trwania: 118 minut
    Ocena: 10.0




    Cheyenne (Sean Penn) to były gwiazdor rocka. Learning, jego ojciec, jest bliski śmierci i Cheyenne wyrusza do Nowego Jorku, by przed jego śmiercią, pojednać się z nim po blisko trzydziestu latach. Niestety, nie zdąża na czas. Na dodatek, dopiero teraz dowiaduję się prawdy o pobycie ojca w Auschwitz oraz o upokorzeniu jakiego doznał z rąk jednego z oficerów SS - Aloise'a Mullera. Zdeterminowany i żądny zemsty, Cheyenne wyrusza w podróż po Ameryce, która zmieni jego życie. (Hsi_Nao)


    Sean Penn - Cheyenne
    Frances McDormand - Jane
    Eve Hewson - Mary
    Kerry Condon - Rachel
    Harry Dean Stanton - Robert Plath
    Joyce Van Patten - Dorothie
    David Byrne - On sam
    Olwen Fouere - Matka Mary







    Video
    ID : 0
    Format : MPEG-4 Visual
    Format profile : Advanced Simple@L5
    Format settings, BVOP : 2
    Format settings, QPel : No
    Format settings, GMC : No warppoints
    Format settings, Matrix : Default (H.263)
    Muxing mode : Packed bitstream
    Codec ID : XVID
    Codec ID/Hint : XviD
    Duration : 1h 58mn
    Bit rate : 1 524 Kbps
    Width : 720 pixels
    Height : 304 pixels
    Display aspect ratio : 2.35:1
    Frame rate : 23.976 fps
    Color space : YUV
    Chroma subsampling : 4:2:0
    Bit depth : 8 bits
    Scan type : Progressive
    Compression mode : Lossy
    Bits/(Pixel*Frame) : 0.290
    Stream size : 1.26 GiB (92%)
    Writing library : XviD 62

    Audio
    ID : 1
    Format : MPEG Audio
    Format version : Version 1
    Format profile : Layer 3
    Mode : Joint stereo
    Mode extension : MS Stereo
    Codec ID : 55
    Codec ID/Hint : MP3
    Duration : 1h 58mn
    Bit rate mode : Constant
    Bit rate : 128 Kbps
    Channel(s) : 2 channels
    Sampling rate : 48.0 KHz
    Compression mode : Lossy
    Stream size : 108 MiB (8%)
    Alignment : Aligned on interleaves
    Interleave, duration : 167 ms (4.00 video frames)
    Interleave, preload duration : 216 ms
    Writing library : LAME3.99r
    Encoding settings : -m j -V 4 -q 2 -lowpass 17 -b 128




    Nazwa pliku:tmbtp.avi
    Ilość plików na koncie: 187
    Rozmiar segmentu: 7MB
    Wielkość uploadu: 1,37GB
    Ilość mirrorów: 9
    Hasło: www.ufs.pl






    Przepraszamy, ale nie możesz zobaczyć tego tematu. Musisz sie Zarejestrować
    albo Zalogować




    Created by URG2 Beta 1.1.2 by PoziomeQ
    Ostatnio edytowane przez Look ; 27-02-2012 o 13:11


    MEMBER > FULL MEMBER > UFS TRIAL > KREATOR > FULL MEMBER > UFS TRIAL > UPLOADER > SUPER UPLOADER > UFS ELITE>MODERATOR>


    +


  2.    Sponsored Links




  3. #2
    Retired Awatar filout
     Info : 
    Dołączył
    Feb 2008
    Posty
    1,695
     Podziękowania : 
    Podziękował: 264
    Doceniono: 10 razy w 8 postach
    filout jest nieaktywny

    Domyślnie

    niezatwierdzone
    każdy problem ma rozwiązanie
    jeśli nie ma rozwiązania to nie ma problemu

Informacje o wątku

Użytkownicy przeglądający ten wątek

Aktualnie 1 użytkownik(ów) przegląda ten wątek. (0 zarejestrowany(ch) oraz 1 gości)

Podobne wątki

  1. 0.7GB The Place Beyond the Pines [2012][BRRip][NAPISY]
    Przez piotrex w dziale HQ (High Quality - Wysoka Jakość)
    Odpowiedzi: 1
    Ostatni post / autor: 20-07-2013, 19:23
  2. 2GB The Place Beyond The Pines [2012][BRRip][ENG][Napisy PL]
    Przez raven w dziale HQ (High Quality - Wysoka Jakość)
    Odpowiedzi: 1
    Ostatni post / autor: 05-06-2013, 20:54
  3. 0.7GB A Lonely Place to Die [2011][BRRip][ENG][Napisy PL]
    Przez Stachu w dziale HQ (High Quality - Wysoka Jakość)
    Odpowiedzi: 1
    Ostatni post / autor: 08-01-2012, 01:42

Uprawnienia umieszczania postów

  • Nie możesz zakładać nowych tematów
  • Nie możesz pisać wiadomości
  • Nie możesz dodawać załączników
  • Nie możesz edytować swoich postów
  •