Aktualizacje seriali
 



Ogłoszenia
UFS - dotacje
Dotacje SMS
Jak korzystać z forumowej szukajki



Pokaż wyniki od 1 do 2 z 2

Wątek: Coriolanus [2011][R5][ENG]

  1. #1
    Retired Awatar Look
     Info : 
    Dołączył
    Jan 2008
    Posty
    4,495
     Podziękowania : 
    Podziękował: 922
    Doceniono: 20,526 razy w 334 postach
     UFS Stats Uploady : 
    Filmy: 595
    Gry: 59
    Programy: 1
    TV's: 72
    Muzyka: 13
    Porno: 1
    Inne: 4
     UFS Stats Konta : 
    Gmail: 172
    Inne: 121
     Total Upload : 
    P2M UP: 2456.2 GB
     Total CA : 
    Total CA: 8670 AC
    Look jest nieaktywny

    mh Coriolanus [2011][R5][ENG]

    Coriolanus



    Produkcja: Wielka Brytania
    Gatunek: Dramat | Thriller
    Data premiery: 2012 (kino), 2011-02-14 (świat)
    Reżyseria: Ralph Fiennes
    Scenariusz: John Logan, William Shakespeare (sztuka)
    Czas trwania: 103 minut
    Ocena:




    Obywatele Rzymu są głodni. Koriolan, bohater Rzymu, wielki żołnierz i człowiek nieugiętej wiary w siebie pogardza ludźmi. Jego skrajne poglądy zapalają masę zamieszek. Manipulowany przez polityków, a nawet i jego własną matkę Volumnie, Koriolan zostaje wygnany z Rzymu. Ofiaruje swoje życie lub swoje usługi swojemu zawziętemu wrogowi - Tullusowi Aufidiusowi. Koriolan oraz Aufidius maszerują na Rzym, który zamierzają zniszczyć. (Hsi_Nao)


    Gerard Butler - Tullus Aufidius
    Ralph Fiennes - Caius Martius Coriolanus
    Jessica Chastain - Virgilia
    Brian Cox - Menenius
    Vanessa Redgrave - Volumnia
    James Nesbitt - Sicinius, trybun
    Lubna Azabal - Tamora, pierwsza obywatelka
    Ashraf Barhom - Cassius, drugi obywatel







    Video
    ID : 1
    Format : AVC
    Format/Info : Advanced Video Codec
    Format profile : High@L2.1
    Format settings, CABAC : Yes
    Format settings, ReFrames : 4 frames
    Codec ID : V_MPEG4/ISO/AVC
    Duration : 1h 58mn
    Bit rate : 554 Kbps
    Width : 688 pixels
    Height : 288 pixels
    Display aspect ratio : 2.35:1
    Frame rate mode : Variable
    Frame rate : 25.000 fps
    Color space : YUV
    Chroma subsampling : 4:2:0
    Bit depth : 8 bits
    Scan type : Progressive
    Bits/(Pixel*Frame) : 0.112
    Stream size : 460 MiB (79%)
    Writing library : x264 core 112

    Audio
    ID : 2
    Format : AC-3
    Format/Info : Audio Coding 3
    Mode extension : CM (complete main)
    Codec ID : A_AC3
    Duration : 1h 58mn
    Bit rate mode : Constant
    Bit rate : 128 Kbps
    Channel(s) : 2 channels
    Channel positions : Front: L R
    Sampling rate : 44.1 KHz
    Bit depth : 16 bits
    Compression mode : Lossy
    Stream size : 108 MiB (19%)



    Nazwa pliku:coriolanus.avi
    Ilość plików na koncie: 87
    Rozmiar segmentu: 7
    Wielkość uploadu: 580
    Ilość mirrorów: 9
    Hasło: www.ufs.pl






    Przepraszamy, ale nie możesz zobaczyć tego tematu. Musisz sie Zarejestrować
    albo Zalogować




    Created by URG2 Beta 1.1.2 by PoziomeQ
    Ostatnio edytowane przez Look ; 27-02-2012 o 13:10


    MEMBER > FULL MEMBER > UFS TRIAL > KREATOR > FULL MEMBER > UFS TRIAL > UPLOADER > SUPER UPLOADER > UFS ELITE>MODERATOR>


    +


  2.    Sponsored Links




  3. #2
    Retired Awatar filout
     Info : 
    Dołączył
    Feb 2008
    Posty
    1,695
     Podziękowania : 
    Podziękował: 264
    Doceniono: 10 razy w 8 postach
    filout jest nieaktywny

    Domyślnie

    niezatwierdzone
    każdy problem ma rozwiązanie
    jeśli nie ma rozwiązania to nie ma problemu

Informacje o wątku

Użytkownicy przeglądający ten wątek

Aktualnie 1 użytkownik(ów) przegląda ten wątek. (0 zarejestrowany(ch) oraz 1 gości)

Podobne wątki

  1. Coriolanus [2011][BRRip][AC3][ENG][Napisy PL]
    Przez adam12 w dziale HQ (High Quality - Wysoka Jakość)
    Odpowiedzi: 4
    Ostatni post / autor: 13-05-2012, 16:21

Uprawnienia umieszczania postów

  • Nie możesz zakładać nowych tematów
  • Nie możesz pisać wiadomości
  • Nie możesz dodawać załączników
  • Nie możesz edytować swoich postów
  •