Aktualizacje seriali
 



Ogłoszenia
UFS - dotacje
Dotacje SMS
Jak korzystać z forumowej szukajki



Pokaż wyniki od 1 do 7 z 7

Wątek: Hugo i jego wynalazek [2011/II][DVDRip][AC3][ENG]

  1. #1
    Ja Tu Robię Tylko Konta Awatar RoberciQ
     Info : 
    Dołączył
    Sep 2008
    Skąd
    City of Westminster
    Posty
    1,492
     Podziękowania : 
    Podziękował: 241
    Doceniono: 231 razy w 107 postach
     UFS Stats Uploady : 
    Filmy: 305
    Gry: 5
    Programy: 1
    TV's: 20
    Muzyka: 4
     UFS Stats Konta : 
    Gmail: 429
    Inne: 463
     Total Upload : 
    P2M UP: 605.25 GB
     Total CA : 
    Total CA: 45190 AC
    RoberciQ jest nieaktywny

    mh Hugo i jego wynalazek [2011/II][DVDRip][AC3][ENG]

    Hugo i jego wynalazek




    Produkcja: USA
    Data Premiery: 2012-02-10 (kino), 2011-10-10 (świat)
    Reżyseria: Martin Scorsese
    Scenariusz: John Logan, Brian Selznick (książka "Wynalazek Hugona Cabreta")
    Czas trwania: 126 minut
    Dystrybucja: UIP - United International Pictures
    Gatunek: Familijny | Przygodowy | Fantasy
    Ocena: 6.8



    Hugo Cabret jest sierotą zamieszkującym paryski dworzec. Pewnego dnia całe jego życie zmieni się za sprawą zepsutego robota, ekscentrycznej dziewczynki i bardzo tajemniczego właściciela sklepu z zabawkami. Dla chłopca będzie to początek magicznej przygody. (opis dystrybutora)



    Papa Georges - Ben Kingsley
    Konduktor - Sacha Baron Cohen
    Hugo Cabret - Asa Butterfield
    Isabelle - Chloë Grace Moretz
    Wujek Claude - Ray Winstone
    Ojciec Hugo - Jude Law
    Lisette - Emily Mortimer
    Pan Labisse - Christopher Lee









    Format : AVI
    Format/Info : Audio Video Interleave
    Format profile : OpenDML
    File size : 1.46 GiB
    Duration : 2h 6mn
    Overall bit rate : 1 659 Kbps
    Writing application : Lavf52.94.0

    Video
    ID : 0
    Format : MPEG-4 Visual
    Format profile : Simple@L1
    Format settings, BVOP : No
    Format settings, QPel : No
    Format settings, GMC : No warppoints
    Format settings, Matrix : Default (H.263)
    Codec ID : FMP4
    Duration : 2h 6mn
    Bit rate : 1 327 Kbps
    Width : 624 pixels
    Height : 352 pixels
    Display aspect ratio : 16:9
    Frame rate : 23.976 fps
    Color space : YUV
    Chroma subsampling : 4:2:0
    Bit depth : 8 bits
    Scan type : Progressive
    Compression mode : Lossy
    Bits/(Pixel*Frame) : 0.252
    Stream size : 1.17 GiB (80%)
    Writing library : Lavc52.108.0

    Audio
    Format : AC-3
    Format/Info : Audio Coding 3
    Codec ID : 00001000-0000-0020-8000-00AA00389B71
    Duration : 2h 6mn
    Bit rate : 320 Kbps
    Channel(s) : 6 channels
    Channel positions : Front: L C R, Side: L R, LFE
    Sampling rate : 48.0 KHz
    Bit depth : 16 bits
    Compression mode : Lossy
    Stream size : 289 MiB (19%)
    Interleave, duration : 32 ms (0.77 video frame)



    Nazwa pliku: Hugo i jego wynalazek [2011/II][DVDRip][AC3][ENG].avi
    Rozmiar Pliku: 1,46 GB
    Rozmiar segmentu: 7,00 MB
    Liczba segmentów: 215
    Liczba mirrorów: 10
    Hasło: www.ufs.pl

    Masz problem z programem MoorHunt? Zajrzyj do działu Poradniki & FAQ tego programu.
    Zalecamy pobieranie za pomocą MailShare







    Przepraszamy, ale nie możesz zobaczyć tego tematu. Musisz sie Zarejestrować
    albo Zalogować

    Upload wykonany w MH 0.6.7.2
    Ostatnio edytowane przez filout ; 29-02-2012 o 04:23

  2. Liczba osób które doceniły autora: 1


  3.    Sponsored Links




  4. #2
    The best creator in UFS Awatar Pan Tadeusz
     Info : 
    Dołączył
    Feb 2010
    Skąd
    Biały
    Posty
    3,140
     Podziękowania : 
    Podziękował: 385
    Doceniono: 1,057 razy w 571 postach
     UFS Stats Uploady : 
    Filmy: 506
    Gry: 17
    Programy: 4
    TV's: 34
    Muzyka: 137
    Porno: 123
    Małe uploady: 4
     UFS Stats Konta : 
    Gmail: 610
    Inne: 1339
     Total Upload : 
    P2M UP: 988.2 GB
     Total CA : 
    Total CA: 96050 AC
    Pan Tadeusz jest nieaktywny

    Domyślnie

    niezatwierdzone
    Ostatnio edytowane przez Pan Tadeusz ; 24-02-2012 o 21:11





    Member -> UFS Trial -> UFS Kreator -> UFS Elite Kreator -> Moderator-> Retired -> UFS Elite Uploader -> ? ? ?

    Pobrałeś plik? SKOMENTUJ GO! Innym przyda się Twoja opinia.

    W razie problemów z moim uploadem, proszę pisać PW !

  5. #3
    Full Member
     Info : 
    Dołączył
    Aug 2007
    Posty
    488
     Podziękowania : 
    Podziękował: 483
    Doceniono: 0 razy w 0 postach
    kostuchv6 jest nieaktywny

    Domyślnie

    polecam wszystkim tel wlasnie chwilke temu ogladnołem.... fajny i magiczny ukazuje cale piekno filmu i czym niektuzy ostatnio troszke zapominaja...:)

  6. #4
    Member
     Info : 
    Dołączył
    Mar 2008
    Posty
    3
     Podziękowania : 
    Podziękował: 0
    Doceniono: 0 razy w 0 postach
    Piterson16 jest nieaktywny

    Domyślnie

    Wszystko ładnie się pobrało. Tylko niestety nie ma głosu

  7. #5
    Member
     Info : 
    Dołączył
    Apr 2007
    Posty
    2
     Podziękowania : 
    Podziękował: 0
    Doceniono: 0 razy w 0 postach
    dzakobo jest nieaktywny

    Domyślnie

    Głos jest, działa bardzo dobrze, pobrane ze srednimi problemami, ale pobrane. A co do dzwięku to spróbujecie z nowymi kodekami bo działa. THX za up

  8. #6
    Full Member
     Info : 
    Dołączył
    Oct 2007
    Posty
    35
     Podziękowania : 
    Podziękował: 32
    Doceniono: 0 razy w 0 postach
    dj_wodzu jest nieaktywny

    Domyślnie

    Też nie miałem głosu. Pobrałem K-lite Codec Pack i działa.

  9. #7
    Full Member
     Info : 
    Dołączył
    Dec 2007
    Posty
    9
     Podziękowania : 
    Podziękował: 0
    Doceniono: 0 razy w 0 postach
    darek77 jest nieaktywny

    Domyślnie

    pobrane oglądnięte super film , polecam wszystkim naprawdę warto obejrzeć

Informacje o wątku

Użytkownicy przeglądający ten wątek

Aktualnie 1 użytkownik(ów) przegląda ten wątek. (0 zarejestrowany(ch) oraz 1 gości)

Uprawnienia umieszczania postów

  • Nie możesz zakładać nowych tematów
  • Nie możesz pisać wiadomości
  • Nie możesz dodawać załączników
  • Nie możesz edytować swoich postów
  •