Aktualizacje seriali
 



Ogłoszenia
UFS - dotacje
Dotacje SMS
Jak korzystać z forumowej szukajki



Pokaż wyniki od 1 do 2 z 2

Wątek: How I Met Your Mother [S01E10][2005][DVDRip][ENG]

  1. #1
    Gdzie są pieniądze za las?! Awatar Stachu
     Info : 
    Dołączył
    Oct 2007
    Skąd
    Köln
    Posty
    9,414
     Podziękowania : 
    Podziękował: 243
    Doceniono: 37,503 razy w 1,148 postach
     UFS Stats Uploady : 
    Filmy: 892
    Gry: 597
    Programy: 14
    TV's: 297
    Muzyka: 87
    Porno: 69
    Inne: 66
    Małe uploady: 12
     UFS Stats Konta : 
    Gmail: 205
    Inne: 648
     Total Upload : 
    P2M UP: 8184.15 GB
     Total CA : 
    Total CA: 14861 AC
     Total HTTP Upload : 
    HTTP UP: 0.7 GB
    Stachu jest nieaktywny

    mh How I Met Your Mother [S01E10][2005][DVDRip][ENG]

    How I Met Your Mother
    How I Met Your Mother




    Produkcja: USA
    Data Premiery: 2008-07-05 (kino), 2005-09-19 (świat), 2010-11-16 (dvd)
    Reżyseria: Pamela Fryman, Rob Greenberg
    Scenariusz: Carter Bays, Craig Thomas
    Czas trwania: odc.: 25 minut
    Dystrybucja: Imperial - CinePix
    Gatunek: Komedia | Romans
    Ocena: 8.2



    Jest rok 2030, Ted sadza dwójkę swoich nastoletnich dzieci na kanapie i zaczyna opowiadać im tytułową historię. Opowieść rozpoczyna się gdy najlepszy przyjaciel Teda oświadcza się swojej dziewczynie, co wywołuje w Tedzie refleksję, że dla niego również nadszedł czas się ustatkować. Co zaskakujące - znajduje tę właściwą dziewczynę dość szybko. Jest nią dziennikarka Robin. Ted zaprasza ją na randkę, na której wszystko idzie dobrze aż do czasu, gdy Ted niechcący wyznaje dziewczynie miłość, wprawiając ją tym samym w zakłopotanie i przekreślając swoje szanse na usidlenie Robin. (opis dystrybutora)



    Ted Mosby - Josh Radnor
    Marshall Eriksen - Jason Segel
    Robin Scherbatsky - Cobie Smulders
    Barney Stinson - Neil Patrick Harris
    Lily Aldrin - Alyson Hannigan
    Starszy Ted Mosby - Bob Saget
    Córka - Lyndsy Fonseca
    Syn - David Henrie









    Format : AVI
    Format/Info : Audio Video Interleave
    File size : 175 MiB
    Duration : 21mn 38s
    Overall bit rate : 1 131 Kbps
    Writing application : VirtualDubMod 1.5.10.2 (build 2540/release)
    Writing library : VirtualDubMod build 2540/release

    Video
    ID : 0
    Format : MPEG-4 Visual
    Format profile : Advanced Simple@L5
    Format settings, BVOP : 2
    Format settings, QPel : No
    Format settings, GMC : No warppoints
    Format settings, Matrix : Default (H.263)
    Muxing mode : Packed bitstream
    Codec ID : XVID
    Codec ID/Hint : XviD
    Duration : 21mn 38s
    Bit rate : 987 Kbps
    Width : 640 pixels
    Height : 352 pixels
    Display aspect ratio : 16:9
    Frame rate : 23.976 fps
    Color space : YUV
    Chroma subsampling : 4:2:0
    Bit depth : 8 bits
    Scan type : Progressive
    Compression mode : Lossy
    Bits/(Pixel*Frame) : 0.183
    Stream size : 153 MiB (87%)
    Writing library : XviD 1.2.1 (UTC 2008-12-04)

    Audio
    ID : 1
    Format : MPEG Audio
    Format version : Version 1
    Format profile : Layer 3
    Mode : Joint stereo
    Mode extension : MS Stereo
    Codec ID : 55
    Codec ID/Hint : MP3
    Duration : 21mn 38s
    Bit rate mode : Variable
    Bit rate : 128 Kbps
    Channel(s) : 2 channels
    Sampling rate : 48.0 KHz
    Compression mode : Lossy
    Stream size : 20.3 MiB (12%)
    Alignment : Aligned on interleaves
    Interleave, duration : 24 ms (0.58 video frame)
    Interleave, preload duration : 368 ms
    Writing library : LAME3.90.
    Encoding settings : -m j -V 4 -q 2 -lowpass 17.6 --abr 128




    Nazwa pliku: 1x10 The Pineapple Incident.avi
    Rozmiar Pliku: 174,51 MB
    Rozmiar segmentu: 7,00 MB
    Liczba segmentów: 25
    Liczba mirrorów: 7

    Hasło: www.ufs.pl

    Masz problem z programem MoorHunt? Zajrzyj do działu Poradniki & FAQ tego programu.
    Zalecamy pobieranie za pomocą MailShare







    Przepraszamy, ale nie możesz zobaczyć tego tematu. Musisz sie Zarejestrować
    albo Zalogować

    Upload wykonany w MH 0.6.7.2
    Member -> Full Member -> UFS Trial -> UFS Uploader -> UFS Elite -> Moderator -> UFS Elite -> Super Vip -> Elite Kreator -> Elite Uploader -> Super Vip -> Elite Uploader -> Super Vip
    Intel Core i5 2500 3.3GHz
    SilentiumPC
    Asus H61
    Kingston HyperX 16GB DDR3 1600MHz
    Seagate 500GB
    Toshiba 320GB
    Seagate Desktop HDD 2TB
    GoodRam SSD 120GB
    Gigabyte GeForce 1060 6GB XTreme OC
    Nagrywarka Asus
    Thermaltake Modular SE 530W
    Zalman 3 Plus White



  2.    Sponsored Links




  3. #2
    The best creator in UFS Awatar Pan Tadeusz
     Info : 
    Dołączył
    Feb 2010
    Skąd
    Biały
    Posty
    3,140
     Podziękowania : 
    Podziękował: 385
    Doceniono: 1,058 razy w 571 postach
     UFS Stats Uploady : 
    Filmy: 506
    Gry: 17
    Programy: 4
    TV's: 34
    Muzyka: 137
    Porno: 123
    Małe uploady: 4
     UFS Stats Konta : 
    Gmail: 610
    Inne: 1339
     Total Upload : 
    P2M UP: 988.2 GB
     Total CA : 
    Total CA: 96050 AC
    Pan Tadeusz jest nieaktywny

    Domyślnie

    niezatwierdzone
    Ostatnio edytowane przez Pan Tadeusz ; 23-02-2012 o 17:41





    Member -> UFS Trial -> UFS Kreator -> UFS Elite Kreator -> Moderator-> Retired -> UFS Elite Uploader -> ? ? ?

    Pobrałeś plik? SKOMENTUJ GO! Innym przyda się Twoja opinia.

    W razie problemów z moim uploadem, proszę pisać PW !

Informacje o wątku

Użytkownicy przeglądający ten wątek

Aktualnie 1 użytkownik(ów) przegląda ten wątek. (0 zarejestrowany(ch) oraz 1 gości)

Podobne wątki

  1. How I Met Your Mother [S03E13][2005][DVDRip][ENG]
    Przez Stachu w dziale Pojedyncze Odcinki
    Odpowiedzi: 1
    Ostatni post / autor: 25-02-2012, 04:43
  2. How I Met Your Mother [S03E12][2005][DVDRip][ENG]
    Przez Stachu w dziale Pojedyncze Odcinki
    Odpowiedzi: 1
    Ostatni post / autor: 25-02-2012, 04:43
  3. How I Met Your Mother [S03E11][2005][DVDRip][ENG]
    Przez Stachu w dziale Pojedyncze Odcinki
    Odpowiedzi: 1
    Ostatni post / autor: 25-02-2012, 04:43
  4. How I Met Your Mother [S01E18][2005][DVDRip][ENG]
    Przez Stachu w dziale Pojedyncze Odcinki
    Odpowiedzi: 1
    Ostatni post / autor: 23-02-2012, 17:06

Uprawnienia umieszczania postów

  • Nie możesz zakładać nowych tematów
  • Nie możesz pisać wiadomości
  • Nie możesz dodawać załączników
  • Nie możesz edytować swoich postów
  •