Aktualizacje seriali
 



Ogłoszenia
UFS - dotacje
Dotacje SMS
Jak korzystać z forumowej szukajki



Pokaż wyniki od 1 do 2 z 2

Wątek: Demon Never Die [2011][DVDRip][ENG]

  1. #1
    Retired Awatar Look
     Info : 
    Dołączył
    Jan 2008
    Posty
    4,495
     Podziękowania : 
    Podziękował: 922
    Doceniono: 20,525 razy w 334 postach
     UFS Stats Uploady : 
    Filmy: 595
    Gry: 59
    Programy: 1
    TV's: 72
    Muzyka: 13
    Porno: 1
    Inne: 4
     UFS Stats Konta : 
    Gmail: 172
    Inne: 121
     Total Upload : 
    P2M UP: 2456.2 GB
     Total CA : 
    Total CA: 8670 AC
    Look jest nieaktywny

    mh Demon Never Die [2011][DVDRip][ENG]

    Demon Never Die



    Produkcja: Wielka Brytania
    Gatunek: Horror
    Data premiery: 2011-10-28 (świat)
    Reżyseria: Arjun Rose
    Scenariusz: Arjun Rose
    Czas trwania: 93 minut
    Ocena:




    Kiedy młoda dziewczyna odbiera sobie życie, Archie (Robert Sheehan) i siedmioro innych zdesperowanych nastolatków, postanawiają podążyć za nią i zawrzeć samobójczy pakt. Ich plany przybierają zupełnie inny kierunek, gdy jeden po drugim zaczynają ginąć. Archie zdaje sobie sprawę, że wszyscy stali się celem zamaskowanego mordercy. Czy odkryją oni kto jest zabójcą, zanim będzie za późno...?


    Robert Sheehan - Archie
    Ashley Walters - Bates
    Tulisa Contostavlos - Amber
    Jason Maza - Kenny
    Reggie Yates - Mason
    Shanika Warren-Markland - Ashleigh
    Jacob Anderson - Sachin
    Jennie Jacques - Jasmine







    Video
    ID : 0
    Format : MPEG-4 Visual
    Format profile : Advanced Simple@L5
    Format settings, BVOP : 2
    Format settings, QPel : No
    Format settings, GMC : No warppoints
    Format settings, Matrix : Default (MPEG)
    Muxing mode : Packed bitstream
    Codec ID : XVID
    Codec ID/Hint : XviD
    Duration : 1h 33mn
    Bit rate : 1 652 Kbps
    Width : 720 pixels
    Height : 304 pixels
    Display aspect ratio : 2.35:1
    Frame rate : 24.000 fps
    Color space : YUV
    Chroma subsampling : 4:2:0
    Bit depth : 8 bits
    Scan type : Progressive
    Compression mode : Lossy
    Bits/(Pixel*Frame) : 0.315
    Stream size : 1.07 GiB (78%)
    Writing library : XviD 64

    Audio
    ID : 1
    Format : AC-3
    Format/Info : Audio Coding 3
    Mode extension : CM (complete main)
    Codec ID : 2000
    Duration : 1h 33mn
    Bit rate mode : Constant
    Bit rate : 448 Kbps
    Channel(s) : 6 channels
    Channel positions : Front: L C R, Side: L R, LFE
    Sampling rate : 48.0 KHz
    Bit depth : 16 bits
    Compression mode : Lossy
    Stream size : 298 MiB (21%)
    Alignment : Aligned on interleaves
    Interleave, duration : 42 ms (1.00 video frame)
    Interleave, preload duration : 512 ms



    Nazwa pliku:dnd.avi
    Ilość plików na koncie:
    Rozmiar segmentu: 7
    Wielkość uploadu: 1,37GB
    Ilość mirrorów: 9
    Hasło: www.ufs.pl






    Przepraszamy, ale nie możesz zobaczyć tego tematu. Musisz sie Zarejestrować
    albo Zalogować




    Created by URG2 Beta 1.1.2 by PoziomeQ


    MEMBER > FULL MEMBER > UFS TRIAL > KREATOR > FULL MEMBER > UFS TRIAL > UPLOADER > SUPER UPLOADER > UFS ELITE>MODERATOR>


    +


  2.    Sponsored Links




  3. #2
    Retired Awatar filout
     Info : 
    Dołączył
    Feb 2008
    Posty
    1,695
     Podziękowania : 
    Podziękował: 264
    Doceniono: 10 razy w 8 postach
    filout jest nieaktywny

    Domyślnie

    niezatwierdzone
    Ostatnio edytowane przez filout ; 22-02-2012 o 02:09
    każdy problem ma rozwiązanie
    jeśli nie ma rozwiązania to nie ma problemu

Informacje o wątku

Użytkownicy przeglądający ten wątek

Aktualnie 1 użytkownik(ów) przegląda ten wątek. (0 zarejestrowany(ch) oraz 1 gości)

Uprawnienia umieszczania postów

  • Nie możesz zakładać nowych tematów
  • Nie możesz pisać wiadomości
  • Nie możesz dodawać załączników
  • Nie możesz edytować swoich postów
  •