Aktualizacje seriali
 



Ogłoszenia
UFS - dotacje
Dotacje SMS
Jak korzystać z forumowej szukajki



Pokaż wyniki od 1 do 2 z 2

Wątek: A Christmas Wish [2011][HDTV][ENG]

  1. #1
    Gdzie są pieniądze za las?! Awatar Stachu
     Info : 
    Dołączył
    Oct 2007
    Skąd
    Köln
    Posty
    9,414
     Podziękowania : 
    Podziękował: 243
    Doceniono: 37,494 razy w 1,148 postach
     UFS Stats Uploady : 
    Filmy: 892
    Gry: 597
    Programy: 14
    TV's: 297
    Muzyka: 87
    Porno: 69
    Inne: 66
    Małe uploady: 12
     UFS Stats Konta : 
    Gmail: 205
    Inne: 648
     Total Upload : 
    P2M UP: 8184.15 GB
     Total CA : 
    Total CA: 14861 AC
     Total HTTP Upload : 
    HTTP UP: 0.7 GB
    Stachu jest nieaktywny

    Ygoow A Christmas Wish [2011][HDTV][ENG]

    A Christmas Wish



    Reżyseria : Craig Clyde

    Scenariusz : Craig Clyde

    Język : English

    Premiera: 20 November 2011 (USA)

    Gatunek: Komedia| Dramat | Familijny




    MARTHA EVANS has been abandoned by her ne'er-do-well husband, who took all their cash and left her homeless and virtually destitute with her two daughters and stepson. Martha leaves town in hopes of finding a job and a place to stay, she finally finds a job at a sleepy rural diner, formerly famous for its home-made root beer. But with her car broken down and the bills piling up, it looks like it's going to be a bleak Christmas for the Evans family. However, there are warm hearts working behind the scenes that ultimately make this the happiest holiday of Martha's life -- a real answer to her prayers...



    Kristy Swanson ... Martha Evans

    Aline Andrade ... Clarice

    Danielle Chuchran ... Jeanie Bullington

    K.C. Clyde ... Joe Hopkins

    Lilee Clyde ... Katie

    Kirstin Dorn ... Mel Evans

    Lloyd Eisler ... Bad Bob







    General

    Complete name: A.Christmas.Wish.2011.HDTV.XviD-NoGRP.avi

    Format: AVI

    Format/Info: Audio Video Interleave

    File size: 700 MiB

    Duration: 1h 23mn

    Overall bit rate: 1 173 Kbps



    Video

    ID: 0

    Format: MPEG-4 Visual

    Format profile: Advanced Simple@L5

    Format settings, BVOP: 2

    Format settings, QPel: No

    Format settings, GMC: No warppoints

    Format settings, Matrix: Default (H.263)

    Codec ID: XVID

    Codec ID/Hint: XviD

    Duration: 1h 23mn

    Bit rate: 1 031 Kbps

    Width: 624 pixels

    Height: 352 pixels

    Display aspect ratio: 16:9

    Frame rate: 29.970 fps

    Color space: YUV

    Chroma subsampling: 4:2:0

    Bit depth: 8 bits

    Scan type: Progressive

    Compression mode: Lossy

    Bits/(Pixel*Frame): 0.157

    Stream size: 615 MiB (88%)

    Writing library: XviD 63



    Audio

    ID: 1

    Format: MPEG Audio

    Format version: Version 1

    Format profile: Layer 3

    Codec ID: 55

    Codec ID/Hint: MP3

    Duration: 1h 23mn

    Bit rate mode: Constant

    Bit rate: 128 Kbps

    Channel(s): 2 channels

    Sampling rate: 48.0 KHz

    Compression mode: Lossy

    Stream size: 76.3 MiB (11%)

    Alignment: Split accross interleaves

    Interleave, duration: 24 ms (0.72 video frame)

    Writing library: LAME3.98.4




    Nazwa pliku: A.Christmas.Wish.2011.HDTV.XviD-NoGRP.avi
    Rozmiar pliku: 699,56 MB
    Liczba zródel: 8
    Liczba segmentów: 100

    Hasło: www.ufs.pl

    Masz problem z programem Ygoow? Zajrzyj do działu Poradniki & FAQ tego programu.






    Przepraszamy, ale nie możesz zobaczyć tego tematu. Musisz sie Zarejestrować
    albo Zalogować

    Upload wykonany w YG 0.6f
    Member -> Full Member -> UFS Trial -> UFS Uploader -> UFS Elite -> Moderator -> UFS Elite -> Super Vip -> Elite Kreator -> Elite Uploader -> Super Vip -> Elite Uploader -> Super Vip
    Intel Core i5 2500 3.3GHz
    SilentiumPC
    Asus H61
    Kingston HyperX 16GB DDR3 1600MHz
    Seagate 500GB
    Toshiba 320GB
    Seagate Desktop HDD 2TB
    GoodRam SSD 120GB
    Gigabyte GeForce 1060 6GB XTreme OC
    Nagrywarka Asus
    Thermaltake Modular SE 530W
    Zalman 3 Plus White



  2.    Sponsored Links




  3. #2
    Uwaga k0 bieta Awatar Silka
     Info : 
    Dołączył
    Mar 2008
    Skąd
    śląsk
    Posty
    2,256
     Podziękowania : 
    Podziękował: 14
    Doceniono: 215 razy w 74 postach
     UFS Stats Uploady : 
    Filmy: 51
    Gry: 9
    Programy: 7
    TV's: 156
    Muzyka: 139
    Inne: 1
    Małe uploady: 8
     UFS Stats Konta : 
    Gmail: 14
    Inne: 20
     Total Upload : 
    P2M UP: 271.3 GB
     Total CA : 
    Total CA: 495 AC
    Silka jest nieaktywny

    Domyślnie

    niezatwierdzone
    Ostatnio edytowane przez Silka ; 30-12-2011 o 17:52




    "...Jeśli któregoś dnia, ktoś zarzuci Ci, że Twoja praca nie jest profesjonalna, powiedz sobie, że Arkę Noego zbudowali amatorzy a Titanic'a profesjonaliści..."



    Trial -> 31.01.10 Uploader -> 14.09.10 Elita -> 6.11.10 Moderator -> 11.06.12 Retired -> 11.11.12 Elita ->21.04.2013 Retired

    Mail Resender



Informacje o wątku

Użytkownicy przeglądający ten wątek

Aktualnie 1 użytkownik(ów) przegląda ten wątek. (0 zarejestrowany(ch) oraz 1 gości)

Uprawnienia umieszczania postów

  • Nie możesz zakładać nowych tematów
  • Nie możesz pisać wiadomości
  • Nie możesz dodawać załączników
  • Nie możesz edytować swoich postów
  •