Aktualizacje seriali
 



Ogłoszenia
UFS - dotacje
Dotacje SMS
Jak korzystać z forumowej szukajki



Pokaż wyniki od 1 do 4 z 4

Wątek: Lost Girl [s2ep01,02][2011][DVDRip][Eng][NapisyPL]

  1. #1
    SuperVIP Awatar civi
     Info : 
    Dołączył
    Dec 2007
    Skąd
    Lublin
    Posty
    350
     Podziękowania : 
    Podziękował: 0
    Doceniono: 12 razy w 9 postach
     UFS Stats Uploady : 
    Filmy: 20
    TV's: 189
    Muzyka: 11
     Total Upload : 
    P2M UP: 203.1 GB
    civi jest nieaktywny

    mh Lost Girl [s2ep01,02][2011][DVDRip][Eng][NapisyPL]

    Lost Girl [s2ep01,02]



    Produkcja: Kanada
    Gatunek: Horror | Dramat | Fantasy
    Data premiery: 2010-09-12 (świat)
    Reżyseria: Paul Fox, John Fawcett
    Scenariusz: M.A. Lovretta, Peter Mohan
    Czas trwania: odc.: 60 minut
    Ocena: 7.4




    Bo dorastała w normalnej rodzinie i nigdy nie miała powodu sądzić, że jest czymś innym niż zwykłą dziewczyną. Przekonała się jednak, że jest sukubem - istotą żywiącą się ludzką energią seksualną. Jej chłopak przypłacił te wiedzę własnym życiem. Przerażona Bo uciekła z domu, i ku swemu zdumieniu odkryła, że świat jest pełen Fae, istot jej podobnych - ukrywających się od wieków wśród normalnych ludzi i potajemnie, w rozmaity sposób, karmiących się nimi. Choć czuje ulgę, że nie jest samotna, Bo decyduje, że nie będzie w pełni żyła ani w jednym, ani w drugim świecie, i szuka złotego środka, by móc trwać miedzy nimi. Równocześnie stara się odkryć, skąd wzięła się jej niezwykła moc. Natura sukuba wplątuje Bo w trójkąt miłosny z Dysonem (zmiennokształtnym i detektywem wydziału zabójstw w jednej osobie) oraz Loren, lekarką, która w naukowy sposób poszukuje metody, by dać Bo samokontrolę, której ta rozpaczliwie poszukuje. (rumiko)


    Anna Silk - Bo
    Ksenia Solo - Kenzi
    Kris Holden-Ried - Dyson
    Richard Howland - Trick
    Zoie Palmer - Lauren
    Stephanie Belding - Amy
    Suzanne Cyr - Blake Jorgenson
    Laura DeCarteret - Dr Christina Hanson










    General
    Complete name : Lost.girl.s02e01.hdtv.xvid-2hd.avi
    Format : AVI
    Format/Info : Audio Video Interleave
    File size : 350 MiB
    Duration : 43mn 54s
    Overall bit rate : 1 113 Kbps
    Writing application : MEncoder SVN-r32669-4.3.2
    Writing library : MPlayer

    Video
    ID : 0
    Format : MPEG-4 Visual
    Format profile : Advanced Simple@L5
    Format settings, BVOP : 2
    Format settings, QPel : No
    Format settings, GMC : No warppoints
    Format settings, Matrix : Default (H.263)
    Muxing mode : Packed bitstream
    Codec ID : XVID
    Codec ID/Hint : XviD
    Duration : 43mn 54s
    Bit rate : 972 Kbps
    Width : 624 pixels
    Height : 352 pixels
    Display aspect ratio : 16:9
    Frame rate : 23.976 fps
    Color space : YUV
    Chroma subsampling : 4:2:0
    Bit depth : 8 bits
    Scan type : Progressive
    Compression mode : Lossy
    Bits/(Pixel*Frame) : 0.185
    Stream size : 305 MiB (87%)
    Writing library : XviD 1.2.1 (UTC 2008-12-04)

    Audio
    ID : 1
    Format : MPEG Audio
    Format version : Version 1
    Format profile : Layer 3
    Mode : Joint stereo
    Mode extension : MS Stereo
    Codec ID : 55
    Codec ID/Hint : MP3
    Duration : 43mn 54s
    Bit rate mode : Variable
    Bit rate : 128 Kbps
    Channel(s) : 2 channels
    Sampling rate : 48.0 KHz
    Compression mode : Lossy
    Stream size : 40.2 MiB (12%)
    Alignment : Aligned on interleaves
    Interleave, duration : 24 ms (0.58 video frame)
    Interleave, preload duration : 537 ms





    Nazwa pliku: Lost Girl s2 ep 1,2 .rar
    Rozmiar Pliku: 762,46 MB
    Rozmiar segmentu: 4,00 MB - 7,00 MB
    Liczba segmentów: 139
    Liczba mirrorów: 9:
    Hasło: www.ufs.pl






    Przepraszamy, ale nie możesz zobaczyć tego tematu. Musisz sie Zarejestrować
    albo Zalogować




    Created by URG2 Beta 1.1.1 by PoziomeQ
    Wszystkie moje zdjęcia do uploadów przedstawiają stan faktyczny filmu.

    Pytania i problemy proszę kierować na 'pm'

    Od 12.2009 dodaję 10% danych naprawczych do upload'u



  2.    Sponsored Links




  3. #2
    Retired Awatar Freddy
     Info : 
    Dołączył
    Nov 2007
    Skąd
    Zasiedmiogórogrodzie
    Posty
    3,806
     Podziękowania : 
    Podziękował: 243
    Doceniono: 591 razy w 246 postach
     UFS Stats Uploady : 
    Filmy: 179
    Gry: 159
    Programy: 5
    TV's: 143
    Muzyka: 26
    Porno: 52
    Inne: 4
    Małe uploady: 3
     UFS Stats Konta : 
    Gmail: 95
    Inne: 410
     Total Upload : 
    P2M UP: 1538.4 GB
     Total CA : 
    Total CA: 9305 AC
    Freddy jest nieaktywny

    Domyślnie

    niezatwierdzone
    Ostatnio edytowane przez Freddy ; 30-10-2011 o 16:03



    ----


    ----


    100% moich uploadów spakowanych w rarze zawiera dane naprawcze.
    ----

  4. #3
    Full Member
     Info : 
    Dołączył
    Jan 2008
    Posty
    431
     Podziękowania : 
    Podziękował: 427
    Doceniono: 0 razy w 0 postach
    alucard666 jest nieaktywny

    Domyślnie

    Jakie jest hasło do rozpakowania? Uprzedzam, że www.ufs.pl już próbowałem kilka razy i nie działa...

  5. #4
    SuperVIP Awatar civi
     Info : 
    Dołączył
    Dec 2007
    Skąd
    Lublin
    Posty
    350
     Podziękowania : 
    Podziękował: 0
    Doceniono: 12 razy w 9 postach
     UFS Stats Uploady : 
    Filmy: 20
    TV's: 189
    Muzyka: 11
     Total Upload : 
    P2M UP: 203.1 GB
    civi jest nieaktywny

    Domyślnie

    przedchwilą wpisywałem hasło z klawiatury i jest www.ufs.pl
    Wszystkie moje zdjęcia do uploadów przedstawiają stan faktyczny filmu.

    Pytania i problemy proszę kierować na 'pm'

    Od 12.2009 dodaję 10% danych naprawczych do upload'u



Informacje o wątku

Użytkownicy przeglądający ten wątek

Aktualnie 1 użytkownik(ów) przegląda ten wątek. (0 zarejestrowany(ch) oraz 1 gości)

Podobne wątki

  1. Lost Girl [S02EP11,12][2011][DVDRip][Eng][NapisyPL]
    Przez civi w dziale Pojedyncze Odcinki
    Odpowiedzi: 1
    Ostatni post / autor: 18-12-2011, 21:36
  2. Lost Girl [s2ep09,10][2011][DVDRip][Eng][NapisyPL]
    Przez civi w dziale Pojedyncze Odcinki
    Odpowiedzi: 1
    Ostatni post / autor: 11-12-2011, 21:58
  3. Lost Girl [s2ep07,08][2011][DVDRip][Eng][NapisyPL]
    Przez civi w dziale Pojedyncze Odcinki
    Odpowiedzi: 1
    Ostatni post / autor: 05-12-2011, 19:48
  4. Lost Girl [s2ep05,06][2011][DVDRip][Eng][NapisyPL]
    Przez civi w dziale Pojedyncze Odcinki
    Odpowiedzi: 1
    Ostatni post / autor: 27-11-2011, 23:29
  5. Lost Girl [s2ep03,04][2011][DVDRip][Eng][NapisyPL]
    Przez civi w dziale Pojedyncze Odcinki
    Odpowiedzi: 1
    Ostatni post / autor: 13-11-2011, 20:37

Uprawnienia umieszczania postów

  • Nie możesz zakładać nowych tematów
  • Nie możesz pisać wiadomości
  • Nie możesz dodawać załączników
  • Nie możesz edytować swoich postów
  •