Aktualizacje seriali
 



Ogłoszenia
UFS - dotacje
Dotacje SMS
Jak korzystać z forumowej szukajki



Pokaż wyniki od 1 do 2 z 2

Wątek: Don't be afraid of the Dark [2011][HDRip][AC3][ENG]

  1. #1
    Retired Awatar Freddy
     Info : 
    Dołączył
    Nov 2007
    Skąd
    Zasiedmiogórogrodzie
    Posty
    3,806
     Podziękowania : 
    Podziękował: 243
    Doceniono: 591 razy w 246 postach
     UFS Stats Uploady : 
    Filmy: 179
    Gry: 159
    Programy: 5
    TV's: 143
    Muzyka: 26
    Porno: 52
    Inne: 4
    Małe uploady: 3
     UFS Stats Konta : 
    Gmail: 95
    Inne: 410
     Total Upload : 
    P2M UP: 1538.4 GB
     Total CA : 
    Total CA: 9305 AC
    Freddy jest nieaktywny

    mh Don't be afraid of the Dark [2011][HDRip][AC3][ENG]

    Don't be afraid of the Dark




    Produkcja: USA | Australia | Meksyk
    Gatunek: Horror
    Data premiery: 2011-08-26 (kino), 2011-03-11 (świat)
    Reżyseria: Troy Nixey
    Scenariusz: Matthew Robbins, Guillermo del Toro
    Czas trwania: 99 minut
    Ocena: 6.6




    Młoda dziewczyna zostaje odesłana, by zamieszkać ze swoim ojcem i jego nową dziewczyną. Po przeprowadzce, nastolatka odkrywa w nowym domu dziwaczne stworzenia, które chcą jej wmówić, że jest jedną z nich. (nathalie)


    Bailee Madison - Sally Hirst
    Guy Pearce - Alex Hirst
    Katie Holmes - Kim
    Alan Dale - Jacoby
    Jack Thompson - Harris
    Dylan Young - Homunculi
    Julia Blake - Pani Underhill
    Emelia Burns...










    General
    Complete name : Dont.Be.Afraid.of.the.Dark.2011.Cropped.HDRip.XVID .AC3.HQ.Hive-CM8.avi
    Format : AVI
    Format/Info : Audio Video Interleave
    File size : 1.16 GiB
    Duration : 1h 39mn
    Overall bit rate : 1 667 Kbps
    Writing application : Nandub v1.0rc2
    Writing library : Nandub build 1853/release

    Video
    ID : 0
    Format : MPEG-4 Visual
    Format profile : Advanced Simple@L5
    Format settings, BVOP : 2
    Format settings, QPel : Yes
    Format settings, GMC : No warppoints
    Format settings, Matrix : Default (H.263)
    Muxing mode : Packed bitstream
    Codec ID : XVID
    Codec ID/Hint : XviD
    Duration : 1h 39mn
    Bit rate : 1 402 Kbps
    Width : 720 pixels
    Height : 304 pixels
    Display aspect ratio : 2.35:1
    Frame rate : 23.976 fps
    Color space : YUV
    Chroma subsampling : 4:2:0
    Bit depth : 8 bits
    Scan type : Progressive
    Compression mode : Lossy
    Bits/(Pixel*Frame) : 0.267
    Stream size : 996 MiB (84%)
    Writing library : XviD 1.2.1 (UTC 2008-12-04)

    Audio
    ID : 1
    Format : AC-3
    Format/Info : Audio Coding 3
    Mode extension : CM (complete main)
    Codec ID : 2000
    Duration : 1h 39mn
    Bit rate mode : Constant
    Bit rate : 256 Kbps
    Channel(s) : 2 channels
    Channel positions : Front: L R
    Sampling rate : 48.0 KHz
    Bit depth : 16 bits
    Compression mode : Lossy
    Stream size : 182 MiB (15%)
    Alignment : Split accross interleaves
    Interleave, duration : 42 ms (1.00 video frame)
    Interleave, preload duration : 500 ms



    Nazwa pliku: Dont.Be.Afraid.of.the.Dark.2011.Cropped.HDRip.XVID .AC3.HQ.Hive-CM8.part1.rar
    Ilość plików na koncie: 100 / 84
    Rozmiar segmentu: 7MB
    Wielkość uploadu: 1.25 GB
    Ilość mirrorów: 8 / 8
    Hasło: www.ufs.pl








    Przepraszamy, ale nie możesz zobaczyć tego tematu. Musisz sie Zarejestrować
    albo Zalogować




    Created by URG2 Beta 1.0 by PoziomeQ
    Ostatnio edytowane przez Freddy ; 06-10-2011 o 18:54



    ----


    ----


    100% moich uploadów spakowanych w rarze zawiera dane naprawcze.
    ----

  2.    Sponsored Links




  3. #2
    CHELSEA LONDYN & BROOKLYN NETS <3 Awatar Pumbek
     Info : 
    Dołączył
    Jan 2007
    Skąd
    ZCH
    Posty
    4,349
     Podziękowania : 
    Podziękował: 796
    Doceniono: 24,750 razy w 540 postach
     UFS Stats Uploady : 
    Filmy: 568
    Gry: 201
    Programy: 17
    TV's: 167
    Muzyka: 70
    Porno: 15
    Inne: 7
    Małe uploady: 7
     UFS Stats Konta : 
    Gmail: 107
    Inne: 124
     Total Upload : 
    P2M UP: 4800.15 GB
     Total CA : 
    Total CA: 15070 AC
    Pumbek jest nieaktywny

    Domyślnie

    niezatwierdzone
    Ostatnio edytowane przez Pumbek ; 06-10-2011 o 20:17
    ..::Member -> Full Member -> UFS Trial -> UFS Kreator -> Full Member -> UFS Uploader -> Super Uploader -> UFS Elite -> SUPER VIP -> UFS Elite -> Moderator -> Super Moderator -> UFS MASTER ->Super Moderator ->Retired -> Super Moderator -> Retired ::..

Informacje o wątku

Użytkownicy przeglądający ten wątek

Aktualnie 1 użytkownik(ów) przegląda ten wątek. (0 zarejestrowany(ch) oraz 1 gości)

Podobne wątki

  1. Dark Tide [2012][HDRip][AC3][ENG]
    Przez Santi w dziale HQ (High Quality - Wysoka Jakość)
    Odpowiedzi: 1
    Ostatni post / autor: 11-03-2012, 14:52

Tagi dla tego wątku

Uprawnienia umieszczania postów

  • Nie możesz zakładać nowych tematów
  • Nie możesz pisać wiadomości
  • Nie możesz dodawać załączników
  • Nie możesz edytować swoich postów
  •