Aktualizacje seriali
 



Ogłoszenia
UFS - dotacje
Dotacje SMS
Jak korzystać z forumowej szukajki



Pokaż wyniki od 1 do 2 z 2

Wątek: The Guard [2011][DVDRip][AC3][ENG]

  1. #1
    Szynka jest tylko jedna
     Info : 
    Dołączył
    Jun 2009
    Posty
    944
     Podziękowania : 
    Podziękował: 38
    Doceniono: 686 razy w 167 postach
     UFS Stats Uploady : 
    Filmy: 302
    Gry: 43
    Programy: 2
    TV's: 45
    Muzyka: 1
    Porno: 15
    Inne: 2
    Małe uploady: 13
     UFS Stats Konta : 
    Gmail: 1
    Inne: 5
     Total Upload : 
    P2M UP: 1023.95 GB
     Total CA : 
    Total CA: 35 AC
    Szynek jest nieaktywny

    mh The Guard [2011][DVDScr][AC3][ENG]

    The Guard



    reżyseria: John Michael McDonagh
    premiera: 20 stycznia 2011 (Świat)
    produkcja: Irlandia
    gatunek: Komedia, Thriller




    An unorthodox Irish policeman with a confrontational personality is teamed up with an uptight FBI agent to investigate an international drug-smuggling ring.



    Sierż. Gerry Boyle - Brendan Gleeson
    Wendell Everett, agent FBI - Don Cheadle
    Francis Sheehy - Liam Cunningham
    Liam O'Leary - David Wilmot
    Clive Cornell - Mark Strong
    Eileen Boyle - Fionnula Flanagan









    Ripper: IMAGiNE IMDB Rating: 7.8/10
    Video Codec: XViD Release Date: 09/09/11
    Audio Codec: AC3 Theatre Date: 29/07/11
    Audio Bitrate: 256 Runtime: 1h 36min
    Subtitles: NIL Language: ENGLISH
    Resolution: 720 x 384 IMDb
    URL: http://www.imdb.com/title/tt1540133/
    DETAILS:
    Video
    ID: 0
    Format: MPEG-4 Visual
    Format profile: Advanced Simple@L5
    Format settings, BVOP: 2
    Format settings, QPel: No
    Format settings, GMC: No warppoints
    Format settings, Matrix: Default (H.263)
    Muxing mode: Packed bitstream
    Codec ID: XVID
    Codec ID/Hint: XviD
    Duration: 1h 36mn
    Bit rate: 1 739 Kbps
    Width: 720 pixels
    Height: 384 pixels
    Display aspect ratio: 1.875
    Frame rate: 25.000 fps
    Color space: YUV
    Chroma subsampling: 4:2:0
    Bit depth: 8 bits
    Scan type: Progressive
    Compression mode: Lossy
    Bits/(Pixel*Frame): 0.252
    Stream size: 1.17 GiB (87%)
    Writing library: XviD 64

    Audio
    ID: 1
    Format: AC-3
    Format/Info: Audio Coding 3
    Mode extension: CM (complete main)
    Codec ID: 2000
    Duration: 1h 36mn
    Bit rate mode: Constant
    Bit rate: 256 Kbps
    Channel(s): 2 channels
    Channel positions: Front: L R
    Sampling rate: 48.0 KHz
    Bit depth: 16 bits
    Compression mode: Lossy
    Stream size: 177 MiB (13%)
    Alignment: Aligned on interleaves
    Interleave, duration: 40 ms (1.00 video frame)
    Update your Players! TD Recommends : CCCP / VLC / SPlayer / KMPlayer



    Nazwa pliku: The Guard 2011 DVDSCR XViD AC3 - IMAGiNE.avi
    Rozmiar Pliku: 1.35 GB
    Rozmiar segmentu: 7.00 MB
    Liczba segmentów: 198
    Liczba mirrorów: 9
    Hasło: www.ufs.pl

    Masz problem z programem MoorHunt? Zajrzyj do działu Poradniki & FAQ tego programu.
    Zalecamy pobieranie za pomocą MailShare







    Przepraszamy, ale nie możesz zobaczyć tego tematu. Musisz sie Zarejestrować
    albo Zalogować

    Upload wykonany w MH 0.6.7.2
    Ostatnio edytowane przez Szynek ; 17-09-2011 o 14:15

  2.    Sponsored Links




  3. #2
    Gdzie są pieniądze za las?! Awatar Stachu
     Info : 
    Dołączył
    Oct 2007
    Skąd
    Köln
    Posty
    9,414
     Podziękowania : 
    Podziękował: 243
    Doceniono: 37,507 razy w 1,148 postach
     UFS Stats Uploady : 
    Filmy: 892
    Gry: 597
    Programy: 14
    TV's: 297
    Muzyka: 87
    Porno: 69
    Inne: 66
    Małe uploady: 12
     UFS Stats Konta : 
    Gmail: 205
    Inne: 648
     Total Upload : 
    P2M UP: 8184.15 GB
     Total CA : 
    Total CA: 14861 AC
     Total HTTP Upload : 
    HTTP UP: 0.7 GB
    Stachu jest nieaktywny

    Domyślnie

    niezatwierdzone
    Ostatnio edytowane przez Stachu ; 17-09-2011 o 16:19
    Member -> Full Member -> UFS Trial -> UFS Uploader -> UFS Elite -> Moderator -> UFS Elite -> Super Vip -> Elite Kreator -> Elite Uploader -> Super Vip -> Elite Uploader -> Super Vip
    Intel Core i5 2500 3.3GHz
    SilentiumPC
    Asus H61
    Kingston HyperX 16GB DDR3 1600MHz
    Seagate 500GB
    Toshiba 320GB
    Seagate Desktop HDD 2TB
    GoodRam SSD 120GB
    Gigabyte GeForce 1060 6GB XTreme OC
    Nagrywarka Asus
    Thermaltake Modular SE 530W
    Zalman 3 Plus White



Informacje o wątku

Użytkownicy przeglądający ten wątek

Aktualnie 1 użytkownik(ów) przegląda ten wątek. (0 zarejestrowany(ch) oraz 1 gości)

Uprawnienia umieszczania postów

  • Nie możesz zakładać nowych tematów
  • Nie możesz pisać wiadomości
  • Nie możesz dodawać załączników
  • Nie możesz edytować swoich postów
  •