Aktualizacje seriali
 



Ogłoszenia
UFS - dotacje
Dotacje SMS
Jak korzystać z forumowej szukajki



Pokaż wyniki od 1 do 2 z 2

Wątek: Leverage[s3ep9,10] [2010][DVDRip][ENG][Napisy PL]

  1. #1
    SuperVIP Awatar civi
     Info : 
    Dołączył
    Dec 2007
    Skąd
    Lublin
    Posty
    350
     Podziękowania : 
    Podziękował: 0
    Doceniono: 12 razy w 9 postach
     UFS Stats Uploady : 
    Filmy: 20
    TV's: 189
    Muzyka: 11
     Total Upload : 
    P2M UP: 203.1 GB
    civi jest nieaktywny

    mh Leverage[s3ep9,10] [2010][DVDRip][ENG][Napisy PL]

    Leverage[s3ep9,10]



    Produkcja: USA
    Gatunek:
    Data Premiery: 2008-12-07 (świat)
    Reżyseria: Dean Devlin, Jonathan Frakes
    Scenariusz: Chris Downey, John Rogers
    Czas trwania: odc.: 60 minut
    Dystrybucja:
    Ocena: 7.4



    Nathan Ford to były detektyw, który rozpracował wiele spraw związanych z oszustwami ubezpieczeniowymi na szeroką skalę. Pewnego dnia ciężko zachorował mu jego jedyny syn, a pracodawca odmówił mu pomocy przy leczeniu chłopca. Na domiar złego zaraz po tym go zwolnił. Wtedy Ford wypowiedział mu prywatną wojnę. (Jankes)



    Nathan Ford - Timothy Hutton
    Alec Hardison - Aldis Hodge
    Eliot Spencer - Christian Kane
    Parker - Beth Riesgraf
    Sophie Devereaux - Gina Bellman










    General
    Format : AVI
    Format/Info : Audio Video Interleave
    File size : 350 MiB
    Duration : 42mn 4s
    Overall bit rate : 1 163 Kbps
    Writing application : Nendub v1.0rc2

    Video
    ID : 0
    Format : MPEG-4 Visual
    Format profile : Advanced Simple@L5
    Format settings, BVOP : Yes
    Format settings, QPel : No
    Format settings, GMC : No warppoints
    Format settings, Matrix : Default (H.263)
    Codec ID : XVID
    Codec ID/Hint : XviD
    Duration : 42mn 4s
    Bit rate : 997 Kbps
    Width : 624 pixels
    Height : 352 pixels
    Display aspect ratio : 16:9
    Frame rate : 23.976 fps
    Color space : YUV
    Chroma subsampling : 4:2:0
    Bit depth : 8 bits
    Scan type : Progressive
    Bits/(Pixel*Frame) : 0.189
    Stream size : 300 MiB (86%)
    Writing library : XviD 1.2.1 (UTC 2008-12-04)

    Audio
    ID : 1
    Format : MPEG Audio
    Format version : Version 1
    Format profile : Layer 3
    Codec ID : 55
    Codec ID/Hint : MP3
    Duration : 42mn 4s
    Bit rate mode : Variable
    Bit rate : 128 Kbps
    Channel(s) : 2 channels
    Sampling rate : 48.0 KHz
    Bit depth : 16 bits
    Stream size : 62.0 MiB (18%)
    Alignment : Aligned on interleaves
    Interleave, duration : 24 ms (0.58 video frame)
    Writing library : LAME3.98





    Nazwa pliku: Leverage s3 ep 9 , 10.rar
    Rozmiar Pliku: 764,62 MB
    Rozmiar segmentu: 4,00 MB - 7,00 MB
    Liczba segmentów: 139
    Liczba mirrorów: 9
    Hasło: www.ufs.pl

    Masz problem z programem MoorHunt? Zajrzyj do działu Poradniki & FAQ tego programu.
    Zalecamy pobieranie za pomocą MailShare







    Przepraszamy, ale nie możesz zobaczyć tego tematu. Musisz sie Zarejestrować
    albo Zalogować

    Upload zawiera 10% danych naprawczych!
    Jak korzystać z danych naprawczych? Tutaj znajdziesz poradnik!
    Upload wykonany w MH 0.6.7.2
    Wszystkie moje zdjęcia do uploadów przedstawiają stan faktyczny filmu.

    Pytania i problemy proszę kierować na 'pm'

    Od 12.2009 dodaję 10% danych naprawczych do upload'u



  2.    Sponsored Links




  3. #2
    Gdzie są pieniądze za las?! Awatar Stachu
     Info : 
    Dołączył
    Oct 2007
    Skąd
    Köln
    Posty
    9,414
     Podziękowania : 
    Podziękował: 243
    Doceniono: 37,518 razy w 1,148 postach
     UFS Stats Uploady : 
    Filmy: 892
    Gry: 597
    Programy: 14
    TV's: 297
    Muzyka: 87
    Porno: 69
    Inne: 66
    Małe uploady: 12
     UFS Stats Konta : 
    Gmail: 205
    Inne: 648
     Total Upload : 
    P2M UP: 8184.15 GB
     Total CA : 
    Total CA: 14861 AC
     Total HTTP Upload : 
    HTTP UP: 0.7 GB
    Stachu jest nieaktywny

    Domyślnie

    niezatwierdzone
    Member -> Full Member -> UFS Trial -> UFS Uploader -> UFS Elite -> Moderator -> UFS Elite -> Super Vip -> Elite Kreator -> Elite Uploader -> Super Vip -> Elite Uploader -> Super Vip
    Intel Core i5 2500 3.3GHz
    SilentiumPC
    Asus H61
    Kingston HyperX 16GB DDR3 1600MHz
    Seagate 500GB
    Toshiba 320GB
    Seagate Desktop HDD 2TB
    GoodRam SSD 120GB
    Gigabyte GeForce 1060 6GB XTreme OC
    Nagrywarka Asus
    Thermaltake Modular SE 530W
    Zalman 3 Plus White



Informacje o wątku

Użytkownicy przeglądający ten wątek

Aktualnie 1 użytkownik(ów) przegląda ten wątek. (0 zarejestrowany(ch) oraz 1 gości)

Podobne wątki

  1. Leverage [S03 E15,16] [2010][DVDRip][ENG][Napisy PL]
    Przez civi w dziale Pojedyncze Odcinki
    Odpowiedzi: 1
    Ostatni post / autor: 25-09-2011, 19:44
  2. Leverage [s3ep 13,14 ] [2010][DVDRip][ENG][Napisy PL]
    Przez civi w dziale Pojedyncze Odcinki
    Odpowiedzi: 1
    Ostatni post / autor: 19-09-2011, 18:04
  3. Leverage [s3ep11,12] [2010][DVDRip][ENG][Napisy PL]
    Przez civi w dziale Pojedyncze Odcinki
    Odpowiedzi: 1
    Ostatni post / autor: 12-09-2011, 22:47
  4. Leverage [s3e7,8] [2010][DVDRip][ENG][Napisy PL]
    Przez civi w dziale Pojedyncze Odcinki
    Odpowiedzi: 1
    Ostatni post / autor: 30-08-2011, 16:12
  5. Leverage [s3e5,6] [2010][DVDRip][ENG][Napisy PL]
    Przez civi w dziale Pojedyncze Odcinki
    Odpowiedzi: 1
    Ostatni post / autor: 21-08-2011, 18:57

Uprawnienia umieszczania postów

  • Nie możesz zakładać nowych tematów
  • Nie możesz pisać wiadomości
  • Nie możesz dodawać załączników
  • Nie możesz edytować swoich postów
  •