Aktualizacje seriali
 



Ogłoszenia
UFS - dotacje
Dotacje SMS
Jak korzystać z forumowej szukajki



Pokaż wyniki od 1 do 2 z 2

Wątek: Leverage [s3e5,6] [2010][DVDRip][ENG][Napisy PL]

  1. #1
    SuperVIP Awatar civi
     Info : 
    Dołączył
    Dec 2007
    Skąd
    Lublin
    Posty
    350
     Podziękowania : 
    Podziękował: 0
    Doceniono: 12 razy w 9 postach
     UFS Stats Uploady : 
    Filmy: 20
    TV's: 189
    Muzyka: 11
     Total Upload : 
    P2M UP: 203.1 GB
    civi jest nieaktywny

    mh Leverage [s3e5,6] [2010][DVDRip][ENG][Napisy PL]

    Leverage [s3e5,6]



    Produkcja: USA
    Gatunek:
    Data Premiery: 2008-12-07 (świat)
    Reżyseria: Dean Devlin, Jonathan Frakes
    Scenariusz: Chris Downey, John Rogers
    Czas trwania: odc.: 60 minut
    Dystrybucja:
    Ocena: 7.4



    Nathan Ford to były detektyw, który rozpracował wiele spraw związanych z oszustwami ubezpieczeniowymi na szeroką skalę. Pewnego dnia ciężko zachorował mu jego jedyny syn, a pracodawca odmówił mu pomocy przy leczeniu chłopca. Na domiar złego zaraz po tym go zwolnił. Wtedy Ford wypowiedział mu prywatną wojnę. (Jankes)



    Nathan Ford - Timothy Hutton
    Alec Hardison - Aldis Hodge
    Eliot Spencer - Christian Kane
    Parker - Beth Riesgraf
    Sophie Devereaux - Gina Bellman










    Video
    ID : 0
    Format : MPEG-4 Visual
    Format profile : Advanced Simple@L5
    Format settings, BVOP : Yes
    Format settings, QPel : No
    Format settings, GMC : No warppoints
    Format settings, Matrix : Default (H.263)
    Codec ID : XVID
    Codec ID/Hint : XviD
    Duration : 42mn 3s
    Bit rate : 998 Kbps
    Width : 624 pixels
    Height : 352 pixels
    Display aspect ratio : 16:9
    Frame rate : 23.976 fps
    Color space : YUV
    Chroma subsampling : 4:2:0
    Bit depth : 8 bits
    Scan type : Progressive
    Bits/(Pixel*Frame) : 0.190
    Stream size : 300 MiB (86%)
    Writing library : XviD 1.2.1 (UTC 2008-12-04)

    Audio
    ID : 1
    Format : MPEG Audio
    Format version : Version 1
    Format profile : Layer 3
    Codec ID : 55
    Codec ID/Hint : MP3
    Duration : 42mn 3s
    Bit rate mode : Variable
    Bit rate : 128 Kbps
    Channel(s) : 2 channels
    Sampling rate : 48.0 KHz
    Bit depth : 16 bits
    Stream size : 46.3 MiB (13%)
    Alignment : Aligned on interleaves
    Interleave, duration : 24 ms (0.58 video frame)





    Nazwa pliku: Leverage s3 ep 5 , 6 .rar
    Rozmiar Pliku: 765,15 MB
    Rozmiar segmentu: 4,00 MB - 7,00 MB
    Liczba segmentów: 137
    Liczba mirrorów: 8
    Hasło: www.ufs.pl

    Masz problem z programem MoorHunt? Zajrzyj do działu Poradniki & FAQ tego programu.
    Zalecamy pobieranie za pomocą MailShare







    Przepraszamy, ale nie możesz zobaczyć tego tematu. Musisz sie Zarejestrować
    albo Zalogować

    Upload zawiera 10% danych naprawczych!
    Jak korzystać z danych naprawczych? Tutaj znajdziesz poradnik!
    Upload wykonany w MH 0.6.7.2
    Wszystkie moje zdjęcia do uploadów przedstawiają stan faktyczny filmu.

    Pytania i problemy proszę kierować na 'pm'

    Od 12.2009 dodaję 10% danych naprawczych do upload'u



  2.    Sponsored Links




  3. #2
    Awatar kejo
     Info : 
    Dołączył
    Mar 2008
    Skąd
    się biorą dzieci?
    Posty
    4,877
     Podziękowania : 
    Podziękował: 650
    Doceniono: 17,135 razy w 467 postach
     UFS Stats Uploady : 
    Filmy: 288
    Gry: 99
    Programy: 1
    TV's: 65
    Muzyka: 286
    Inne: 22
    Małe uploady: 15
     UFS Stats Konta : 
    Gmail: 176
    Inne: 229
     Total Upload : 
    P2M UP: 1548.35 GB
     Total CA : 
    Total CA: 9350 AC
    kejo jest nieaktywny

    Domyślnie

    niezatwierdzone
    Ostatnio edytowane przez kejo ; 21-08-2011 o 18:59





    Member [25.03.2008]
    UFS Trial [02.07.2010]
    UFS Kreator [18.07.2010]
    UFS Uploader [19.12.2010]
    UFS Elite [15.05.2011]
    Super Vip [19.03.2012]
    UFS Elite [01.10.2012]
    Moderator [28.10.2012]
    Super Moderator [07.04.2013]
    Retired [29.09.2013]
    UFS Elite [28.12.2013]
    Elite Kreator [08.04.2014]
    Retired [11.05.2014]




Informacje o wątku

Użytkownicy przeglądający ten wątek

Aktualnie 1 użytkownik(ów) przegląda ten wątek. (0 zarejestrowany(ch) oraz 1 gości)

Podobne wątki

  1. Leverage [S03 E15,16] [2010][DVDRip][ENG][Napisy PL]
    Przez civi w dziale Pojedyncze Odcinki
    Odpowiedzi: 1
    Ostatni post / autor: 25-09-2011, 19:44
  2. Leverage [s3ep 13,14 ] [2010][DVDRip][ENG][Napisy PL]
    Przez civi w dziale Pojedyncze Odcinki
    Odpowiedzi: 1
    Ostatni post / autor: 19-09-2011, 18:04
  3. Leverage [s3ep11,12] [2010][DVDRip][ENG][Napisy PL]
    Przez civi w dziale Pojedyncze Odcinki
    Odpowiedzi: 1
    Ostatni post / autor: 12-09-2011, 22:47
  4. Leverage[s3ep9,10] [2010][DVDRip][ENG][Napisy PL]
    Przez civi w dziale Pojedyncze Odcinki
    Odpowiedzi: 1
    Ostatni post / autor: 04-09-2011, 23:21
  5. Sanctuary [s3e5,6] [2010][DVDRip][ENG][Napisy PL]
    Przez civi w dziale Pojedyncze Odcinki
    Odpowiedzi: 1
    Ostatni post / autor: 02-01-2011, 20:47

Uprawnienia umieszczania postów

  • Nie możesz zakładać nowych tematów
  • Nie możesz pisać wiadomości
  • Nie możesz dodawać załączników
  • Nie możesz edytować swoich postów
  •