Aktualizacje seriali
 



Ogłoszenia
UFS - dotacje
Dotacje SMS
Jak korzystać z forumowej szukajki



Pokaż wyniki od 1 do 2 z 2

Wątek: Mechanik: - Prawo zemsty [2011][BRRip][1080p][AC3][LEK-PL]

  1. #1
    SuperVIP Awatar adam12
     Info : 
    Dołączył
    Jul 2007
    Posty
    1,674
     Podziękowania : 
    Podziękował: 109
    Doceniono: 395 razy w 206 postach
     UFS Stats Uploady : 
    Filmy: 550
    Gry: 1
    TV's: 4
    Muzyka: 86
    Inne: 4
     UFS Stats Konta : 
    Gmail: 112
    Inne: 46
     Total Upload : 
    P2M UP: 1797.55 GB
     Total CA : 
    Total CA: 2395 AC
    adam12 jest nieaktywny

    mh Mechanik: - Prawo zemsty [2011][BRRip][1080p][AC3][LEK-PL]

    Mechanik: - Prawo zemsty

    The Mechanic





    Produkcja: USA
    Gatunek: Dramat, Thriller, Akcja
    Data Premiery: 2011-01-13 (świat), 2011-09-21 (dvd)
    Reżyseria: Simon West
    Scenariusz: Richard Wenk, Lewis John Carlino
    Czas trwania: 93 minut
    Ocena: 6.8



    Arthur Bishop (Jason Statham) jest płatnym, profesjonalnym mordercą. Żyje w swoim świecie i według własnych zasad. Pewnego dnia postanawia znaleźć i wyszkolić swojego następcę. Okazuje się nim być młody Steve McKenna (Ben Foster). Współpraca układa im się doskonale dopóki Bishop nie dostaje zlecenia na morderstwo ojca Steve'a (Donald Sutherland). (Santanico)



    Arthur Bishop - Jason Statham
    Steve McKenna - Ben Foster
    Harry McKenna - Donald Sutherland
    Sara - Mini Anden
    Dean Sanderson - Tony Goldwyn
    Kelly - Christa Campbell
    Maria - Katarzyna Wolejnio
    Dziewczyna w barze kawowym - Monica Acosta









    Video
    ID : 0
    Format : MPEG-4 Visual
    Format profile : Advanced Simple@L5
    Format settings, BVOP : 2
    Format settings, QPel : Yes
    Format settings, GMC : No warppoints
    Format settings, Matrix : Default (MPEG)
    Codec ID : XVID
    Codec ID/Hint : XviD
    Duration : 1h 32mn
    Bit rate : 5 512 Kbps
    Width : 1 920 pixels
    Height : 800 pixels
    Display aspect ratio : 2.40:1
    Frame rate : 23.976 fps
    Color space : YUV
    Chroma subsampling : 4:2:0
    Bit depth : 8 bits
    Scan type : Progressive
    Compression mode : Lossy
    Bits/(Pixel*Frame) : 0.150
    Stream size : 3.57 GiB (92%)
    Writing library : XviD 1.2.1 (UTC 2008-12-04)

    Audio
    ID : 1
    Format : AC-3
    Format/Info : Audio Coding 3
    Mode extension : CM (complete main)
    Codec ID : 2000
    Duration : 1h 32mn
    Bit rate mode : Constant
    Bit rate : 448 Kbps
    Channel(s) : 6 channels
    Channel positions : Front: L C R, Side: L R, LFE
    Sampling rate : 48.0 KHz
    Bit depth : 16 bits
    Compression mode : Lossy
    Stream size : 295 MiB (7%)
    Alignment : Aligned on interleaves
    Interleave, duration : 42 ms (1.01 video frame)




    Nazwa pliku: The.Mechanic.2011.PL.1080p.BRRip.XViD-PolishET.part1 - 3.rar
    Rozmiar Pliku: 2 x 1,46 GB / 1 x 1,35 GB
    Rozmiar segmentu: 7,00 MB
    Liczba segmentów: 2 x 215 / 1 x 198
    Liczba mirrorów: 3 x 10

    Hasło: www.ufs.pl

    Masz problem z programem MoorHunt? Zajrzyj do działu Poradniki & FAQ tego programu.
    Zalecamy pobieranie za pomocą MailShare







    Przepraszamy, ale nie możesz zobaczyć tego tematu. Musisz sie Zarejestrować
    albo Zalogować

    Upload zawiera 10% danych naprawczych!
    Jak korzystać z danych naprawczych? Tutaj znajdziesz poradnik!
    Upload wykonany w MH 0.6.7.2
    Ostatnio edytowane przez jeep ; 11-10-2016 o 09:48

  2. Liczba osób które doceniły autora: 10


  3.    Sponsored Links




  4. #2
    Retired Awatar depciak
     Info : 
    Dołączył
    Sep 2007
    Skąd
    Rzeszów
    Posty
    3,840
     Podziękowania : 
    Podziękował: 3
    Doceniono: 157 razy w 67 postach
     UFS Stats Uploady : 
    Filmy: 94
    Gry: 69
    TV's: 51
    Muzyka: 4
    Porno: 6
    Małe uploady: 2
     UFS Stats Konta : 
    Gmail: 418
    Inne: 174
     Total Upload : 
    P2M UP: 1519.25 GB
     Total CA : 
    Total CA: 21035 AC
    depciak jest nieaktywny

    Domyślnie

    niezatwierdzone
    Ostatnio edytowane przez depciak ; 18-08-2011 o 22:15
    1234567890

Informacje o wątku

Użytkownicy przeglądający ten wątek

Aktualnie 1 użytkownik(ów) przegląda ten wątek. (0 zarejestrowany(ch) oraz 1 gości)

Podobne wątki

  1. 20.5GB Mechanik: Prawo zemsty [2011][Blu-Ray][1080p][x264][DTS][LEK-PL+ENG]
    Przez F3 w dziale Filmy High Definition [Dział od rangi Full Member]
    Odpowiedzi: 1
    Ostatni post / autor: 05-11-2014, 08:40

Uprawnienia umieszczania postów

  • Nie możesz zakładać nowych tematów
  • Nie możesz pisać wiadomości
  • Nie możesz dodawać załączników
  • Nie możesz edytować swoich postów
  •