Aktualizacje seriali
 



Ogłoszenia
UFS - dotacje
Dotacje SMS
Jak korzystać z forumowej szukajki



Pokaż wyniki od 1 do 3 z 3

Wątek: Pretty Little Liars [SEZON 2][2010][HDTV][ENG]

  1. #1
    CHELSEA LONDYN & BROOKLYN NETS <3 Awatar Pumbek
     Info : 
    Dołączył
    Jan 2007
    Skąd
    ZCH
    Posty
    4,344
     Podziękowania : 
    Podziękował: 794
    Doceniono: 24,684 razy w 540 postach
     UFS Stats Uploady : 
    Filmy: 568
    Gry: 201
    Programy: 17
    TV's: 167
    Muzyka: 70
    Porno: 15
    Inne: 7
    Małe uploady: 7
     UFS Stats Konta : 
    Gmail: 107
    Inne: 124
     Total Upload : 
    P2M UP: 4800.15 GB
     Total CA : 
    Total CA: 15070 AC
    Pumbek jest nieaktywny

    mh Pretty Little Liars [SEZON 2][2010][HDTV][ENG]

    Pretty Little Liars



    Produkcja: USA
    Gatunek: Dramat
    Data Premiery: 2011-07-16 (kino), 2010-06-08 (świat)
    Czas trwania: odc.: 44 minut



    Gdy znika dziewczyna imieniem Allison, jej cztery najlepsze przyjaciółki wierzą, że ich najskrytsze tajemnice pozostaną tajemnicą. Gdy jednak zaczynają dostawać SMS-y z pogróżkami, podpisane literą A, dochodzą do wniosku, że straszna prawda może wkrótce wyjść na jaw. Oparty o serię bestsellerowych powieści dla młodzieży, wyprodukowany przez wytwórnię Alloy serial Pretty Little Liars pełen jest tajemnic, skandali, intryg i napięcia. (opis dystrybutora)



    Troian Avery Bellisario - Spencer Hastings
    Ashley Benson - Hanna Marin
    Lucy Hale - Aria Montgomery
    Shay Mitchell - Emily Fields
    Janel Parrish - Mona Vanderwaal
    Sasha Pieterse - Alison DiLaurentis
    Bianca Lawson - Maya St. Germain
    Torrey DeVitto - Melissa Hastings



    Plik:General
    Complete name : /ram/Pretty.Little.Liars.S02E09.HDTV.XviD-LOL/pretty.little.liars.209.hdtv-lol.avi
    Format : AVI
    Format/Info : Audio Video Interleave
    File size : 350 MiB
    Duration : 43mn 38s
    Overall bit rate : 1 120 Kbps
    Writing application : Lavf53.2.0
    Video:ID : 0
    Format : MPEG-4 Visual
    Format profile : Advanced Simple@L5
    Format settings, BVOP : Yes
    Format settings, QPel : No
    Format settings, GMC : No warppoints
    Format settings, Matrix : Default (H.263)
    Codec ID : XVID
    Codec ID/Hint : XviD
    Duration : 43mn 38s
    Bit rate : 984 Kbps
    Width : 624 pixels
    Height : 352 pixels
    Display aspect ratio : 16:9
    Frame rate : 23.976 fps
    Color space : YUV
    Chroma subsampling : 4:2:0
    Bit depth : 8 bits
    Scan type : Progressive
    Compression mode : Lossy
    Bits/(Pixel*Frame) : 0.187
    Stream size : 307 MiB (88%)
    Writing library : XviD 63

    Audio:Audio
    ID : 1
    Format : MPEG Audio
    Codec ID : 55
    Codec ID/Hint : MP3
    Duration : 43mn 38s
    Bit rate : 123 Kbps
    Channel(s) : 2 channels
    Sampling rate : 48.0 KHz
    Compression mode : Lossy
    Stream size : 38.5 MiB (11%)
    Alignment : Aligned on interleaves
    Interleave, duration : 24 ms (0.58 video frame)












    Nazwa pliku: Pretty Little Liars [S02]
    Ilość segmentów: 50
    Rozmiar segmentu: 7MB
    Wielkość uploadu: ~6GB
    Ilość mirrorów: 9
    Hasło do scalenia: www.ufs.pl







    Przepraszamy, ale nie możesz zobaczyć tego tematu. Musisz sie Zarejestrować
    albo Zalogować

    Podziękwania za konta dla [DJ]MasterBeat ]


    Ostatnio edytowane przez Pumbek ; 23-10-2011 o 00:25
    ..::Member -> Full Member -> UFS Trial -> UFS Kreator -> Full Member -> UFS Uploader -> Super Uploader -> UFS Elite -> SUPER VIP -> UFS Elite -> Moderator -> Super Moderator -> UFS MASTER ->Super Moderator ->Retired -> Super Moderator -> Retired ::..

  2. Liczba osób które doceniły autora: 1


  3.    Sponsored Links




  4. #2
    Awatar kejo
     Info : 
    Dołączył
    Mar 2008
    Skąd
    się biorą dzieci?
    Posty
    4,877
     Podziękowania : 
    Podziękował: 650
    Doceniono: 17,137 razy w 467 postach
     UFS Stats Uploady : 
    Filmy: 288
    Gry: 99
    Programy: 1
    TV's: 65
    Muzyka: 286
    Inne: 22
    Małe uploady: 15
     UFS Stats Konta : 
    Gmail: 176
    Inne: 229
     Total Upload : 
    P2M UP: 1548.35 GB
     Total CA : 
    Total CA: 9350 AC
    kejo jest nieaktywny

    Domyślnie

    niezatwierdzone
    Ostatnio edytowane przez kejo ; 11-08-2011 o 13:19





    Member [25.03.2008]
    UFS Trial [02.07.2010]
    UFS Kreator [18.07.2010]
    UFS Uploader [19.12.2010]
    UFS Elite [15.05.2011]
    Super Vip [19.03.2012]
    UFS Elite [01.10.2012]
    Moderator [28.10.2012]
    Super Moderator [07.04.2013]
    Retired [29.09.2013]
    UFS Elite [28.12.2013]
    Elite Kreator [08.04.2014]
    Retired [11.05.2014]




  5. #3
    CHELSEA LONDYN & BROOKLYN NETS <3 Awatar Pumbek
     Info : 
    Dołączył
    Jan 2007
    Skąd
    ZCH
    Posty
    4,344
     Podziękowania : 
    Podziękował: 794
    Doceniono: 24,684 razy w 540 postach
     UFS Stats Uploady : 
    Filmy: 568
    Gry: 201
    Programy: 17
    TV's: 167
    Muzyka: 70
    Porno: 15
    Inne: 7
    Małe uploady: 7
     UFS Stats Konta : 
    Gmail: 107
    Inne: 124
     Total Upload : 
    P2M UP: 4800.15 GB
     Total CA : 
    Total CA: 15070 AC
    Pumbek jest nieaktywny

    Domyślnie

    odcinek 11 dodany
    ..::Member -> Full Member -> UFS Trial -> UFS Kreator -> Full Member -> UFS Uploader -> Super Uploader -> UFS Elite -> SUPER VIP -> UFS Elite -> Moderator -> Super Moderator -> UFS MASTER ->Super Moderator ->Retired -> Super Moderator -> Retired ::..

Informacje o wątku

Użytkownicy przeglądający ten wątek

Aktualnie 1 użytkownik(ów) przegląda ten wątek. (0 zarejestrowany(ch) oraz 1 gości)

Podobne wątki

  1. Pretty Little Liars [S01E14][2010][HDTV][ENG]
    Przez Yaro w dziale Pojedyncze Odcinki
    Odpowiedzi: 1
    Ostatni post / autor: 26-01-2011, 15:45
  2. Pretty Little Liars [S01E02][2010][HDTV][ENG]
    Przez Yaro w dziale Pojedyncze Odcinki
    Odpowiedzi: 1
    Ostatni post / autor: 06-01-2011, 16:52
  3. Pretty Little Liars [S01E01][2010][HDTV][ENG]
    Przez Yaro w dziale Pojedyncze Odcinki
    Odpowiedzi: 1
    Ostatni post / autor: 06-01-2011, 13:23

Uprawnienia umieszczania postów

  • Nie możesz zakładać nowych tematów
  • Nie możesz pisać wiadomości
  • Nie możesz dodawać załączników
  • Nie możesz edytować swoich postów
  •