Aktualizacje seriali
 



Ogłoszenia
UFS - dotacje
Dotacje SMS
Jak korzystać z forumowej szukajki



Pokaż wyniki od 1 do 2 z 2

Wątek: White Collar [s3e09,10] [2011][DVDRip][ENG]

  1. #1
    SuperVIP Awatar civi
     Info : 
    Dołączył
    Dec 2007
    Skąd
    Lublin
    Posty
    350
     Podziękowania : 
    Podziękował: 0
    Doceniono: 12 razy w 9 postach
     UFS Stats Uploady : 
    Filmy: 20
    TV's: 189
    Muzyka: 11
     Total Upload : 
    P2M UP: 203.1 GB
    civi jest nieaktywny

    mh White Collar [s3e09,10] [2011][DVDRip][ENG]

    White Collar [s3e09,10]



    Produkcja: USA
    Gatunek:
    Data Premiery: 2011-01-20 (kino), 2009-10-23 (świat)
    Reżyseria: John T. Kretchmer, Kevin Bray
    Scenariusz: Joe Henderson, Jim Campolongo
    Czas trwania: odc.: 60 minut
    Dystrybucja:
    Ocena: 7.6



    White Collar to serial sensacyjny opowiadający o niezwykłej współpracy zabójczo przystojnego oszusta Neala Caffreya (Matthew Bomer, Teksańska masakra piłą mechaniczną: Początek) i agenta FBI Petera Burke'a (Tim DeKay). Neal zostaje ponownie złapany przez zdolnego agenta Burke’a po ucieczce z więzienia w poszukiwaniu miłości swojego życia - Kate (Alexandra Daddario), która niedawno zniknęła. Po ucieczce Neal udaje się do ich wspólnego mieszkania, gdzie znajduje jedynie pustą butelkę po winie Bordeaux, która była symbolem ich szczęścia. Tam dopada go agent Burke, któremu czarujący przestępca składa propozycję nie do odrzucenia. Caffrey chce wykorzystać swoje kryminalne doświadczenie, aby pomóc agentom federalnym łapać innych nieuchwytnych przestępców. Z początku nieufny Peter szybko docenia "profesjonalny" wygląd oraz intuicję genialnego kryminalisty, którymi nie mogą się pochwalić inni stróże prawa. (opis dystrybutora)



    Neal Caffrey - Matthew Bomer
    Agent Peter Burke - Tim DeKay
    Mozzie - Willie Garson
    Elizabeth Burke - Tiffani Thiessen
    Jones - Sharif Atkins
    Lauren Cruz - Natalie Morales
    Reese Hughes - James Rebhorn
    June - Diahann Carroll










    General
    Format : AVI
    Format/Info : Audio Video Interleave
    File size : 350 MiB
    Duration : 42mn 15s
    Overall bit rate : 1 158 Kbps
    Writing application : Some super fast AVI muxer

    Video
    ID : 0
    Format : MPEG-4 Visual
    Format profile : Advanced Simple@L5
    Format settings, BVOP : Yes
    Format settings, QPel : No
    Format settings, GMC : No warppoints
    Format settings, Matrix : Default (H.263)
    Codec ID : XVID
    Codec ID/Hint : XviD
    Duration : 42mn 15s
    Bit rate : 991 Kbps
    Width : 624 pixels
    Height : 352 pixels
    Display aspect ratio : 16:9
    Frame rate : 23.976 fps
    Color space : YUV
    Chroma subsampling : 4:2:0
    Bit depth : 8 bits
    Scan type : Progressive
    Bits/(Pixel*Frame) : 0.188
    Stream size : 299 MiB (86%)
    Writing library : XviD 70

    Audio
    ID : 1
    Format : MPEG Audio
    Format version : Version 1
    Format profile : Layer 3
    Codec ID : 55
    Codec ID/Hint : MP3
    Duration : 42mn 15s
    Bit rate mode : Variable
    Bit rate : 155 Kbps
    Channel(s) : 2 channels
    Sampling rate : 48.0 KHz
    Stream size : 46.7 MiB (13%)
    Alignment : Aligned on interleaves
    Interleave, duration : 24 ms (0.58 video frame)
    Interleave, preload duration : 39 ms





    Nazwa pliku: White Collar 3x 09 , 10 .rar
    Rozmiar Pliku: 762,34 MB
    Rozmiar segmentu: 4,00 MB - 7,00 MB
    Liczba segmentów: 142
    Liczba mirrorów: 9
    Hasło: www.ufs.pl

    Masz problem z programem MoorHunt? Zajrzyj do działu Poradniki & FAQ tego programu.
    Zalecamy pobieranie za pomocą MailShare







    Przepraszamy, ale nie możesz zobaczyć tego tematu. Musisz sie Zarejestrować
    albo Zalogować

    Upload wykonany w MH 0.6.7.2
    Wszystkie moje zdjęcia do uploadów przedstawiają stan faktyczny filmu.

    Pytania i problemy proszę kierować na 'pm'

    Od 12.2009 dodaję 10% danych naprawczych do upload'u



  2.    Sponsored Links




  3. #2
    CHELSEA LONDYN & BROOKLYN NETS <3 Awatar Pumbek
     Info : 
    Dołączył
    Jan 2007
    Skąd
    ZCH
    Posty
    4,344
     Podziękowania : 
    Podziękował: 794
    Doceniono: 24,684 razy w 540 postach
     UFS Stats Uploady : 
    Filmy: 568
    Gry: 201
    Programy: 17
    TV's: 167
    Muzyka: 70
    Porno: 15
    Inne: 7
    Małe uploady: 7
     UFS Stats Konta : 
    Gmail: 107
    Inne: 124
     Total Upload : 
    P2M UP: 4800.15 GB
     Total CA : 
    Total CA: 15070 AC
    Pumbek jest nieaktywny

    Domyślnie

    niezatwierdzone
    Ostatnio edytowane przez Pumbek ; 10-08-2011 o 23:23
    ..::Member -> Full Member -> UFS Trial -> UFS Kreator -> Full Member -> UFS Uploader -> Super Uploader -> UFS Elite -> SUPER VIP -> UFS Elite -> Moderator -> Super Moderator -> UFS MASTER ->Super Moderator ->Retired -> Super Moderator -> Retired ::..

Informacje o wątku

Użytkownicy przeglądający ten wątek

Aktualnie 1 użytkownik(ów) przegląda ten wątek. (0 zarejestrowany(ch) oraz 1 gości)

Podobne wątki

  1. White Collar [S3E05,06][2011][DVDRip][ENG]
    Przez civi w dziale Pojedyncze Odcinki
    Odpowiedzi: 5
    Ostatni post / autor: 08-08-2011, 17:44
  2. White Collar [S3E01,02][2011][DVDRip][ENG]
    Przez civi w dziale Pojedyncze Odcinki
    Odpowiedzi: 3
    Ostatni post / autor: 16-07-2011, 21:10
  3. White Collar [S3E03,04][2011][DVDRip][ENG]
    Przez civi w dziale Pojedyncze Odcinki
    Odpowiedzi: 1
    Ostatni post / autor: 10-07-2011, 17:49

Uprawnienia umieszczania postów

  • Nie możesz zakładać nowych tematów
  • Nie możesz pisać wiadomości
  • Nie możesz dodawać załączników
  • Nie możesz edytować swoich postów
  •