Aktualizacje seriali
 



Ogłoszenia
UFS - dotacje
Dotacje SMS
Jak korzystać z forumowej szukajki



Pokaż wyniki od 1 do 3 z 3

Wątek: Super 8 [2011][DVDScr][ENG]

  1. #1
    Szynka jest tylko jedna
     Info : 
    Dołączył
    Jun 2009
    Posty
    944
     Podziękowania : 
    Podziękował: 38
    Doceniono: 686 razy w 167 postach
     UFS Stats Uploady : 
    Filmy: 302
    Gry: 43
    Programy: 2
    TV's: 45
    Muzyka: 1
    Porno: 15
    Inne: 2
    Małe uploady: 13
     UFS Stats Konta : 
    Gmail: 1
    Inne: 5
     Total Upload : 
    P2M UP: 1023.95 GB
     Total CA : 
    Total CA: 35 AC
    Szynek jest nieaktywny

    mh Super 8 [2011][DVDScr][ENG]

    Super 8



    Produkcja: USA
    Gatunek: Akcja
    Data Premiery: 2011-06-17 (kino), 2011-06-09 (świat)
    Reżyseria: J.J. Abrams
    Scenariusz: J.J. Abrams
    Czas trwania: 112 minut
    Dystrybucja: UIP - United International Pictures
    Ocena: 7.3



    Lato 1979 roku. Grupa przyjaciół w małym miasteczku Ohio, jest świadkiem katastrofy kolejowej podczas kręcenia filmu Super 8, wkrótce potem podejrzewają, że to nie był wypadek. W mieście mają miejsce dziwne i niewytłumaczalne zaginięcia, lokalny zastępca szeryfa stara się odkryć prawdę, która okazuje się bardziej przerażająca niż ktokolwiek mógł sobie wyobrazić. (ferhin2)



    Alice Dainard - Elle Fanning
    Lamb, zastępca szeryfa - Kyle Chandler
    Jen Kaznyk - Amanda Michalka
    Płk Nelec - Noah Emmerich
    Louis Dainard - Ron Eldard
    Martin - Gabriel Basso
    Preston - Zach Mills
    Carey - Ryan Lee









    Details

    Format: AVI
    Format/Info: Audio Video Interleave
    File size: 702 MiB
    Duration: 1h 23mn
    Overall bit rate: 1 182 Kbps
    Writing application: VirtualDubMod 1.5.10.2 (build 2540/release)
    Writing library: VirtualDubMod build 2540/release

    Video
    ID: 0
    Format: MPEG-4 Visual
    Format profile: Advanced Simple@L5
    Format settings, BVOP: 2
    Format settings, QPel: No
    Format settings, GMC: No warppoints
    Format settings, Matrix: Default (H.263)
    Codec ID: XVID
    Codec ID/Hint: XviD
    Duration: 1h 23mn
    Bit rate: 1 038 Kbps
    Width: 640 pixels
    Height: 272 pixels
    Display aspect ratio: 2.35:1
    Frame rate: 25.000 fps
    Color space: YUV
    Chroma subsampling: 4:2:0
    Bit depth: 8 bits
    Scan type: Progressive
    Compression mode: Lossy
    Bits/(Pixel*Frame): 0.239
    Stream size: 617 MiB (88%)
    Writing library: XviD 61

    Audio
    ID: 1
    Format: MPEG Audio
    Format version: Version 1
    Format profile: Layer 3
    Mode: Joint stereo
    Mode extension: MS Stereo
    Codec ID: 55
    Codec ID/Hint: MP3
    Duration: 1h 23mn
    Bit rate mode: Variable
    Bit rate: 130 Kbps
    Minimum bit rate: 128 Kbps
    Channel(s): 2 channels
    Sampling rate: 48.0 KHz
    Compression mode: Lossy
    Stream size: 77.3 MiB (11%)
    Alignment: Aligned on interleaves
    Interleave, duration: 24 ms (0.60 video frame)
    Interleave, preload duration: 141 ms
    Writing library: LAME3.95
    Encoding settings: -m j -V 4 -q 3 -lowpass 18 --vbr-old -b 128



    Nazwa pliku: Super.8.2011.DVDSCR.XViD.rar
    Rozmiar Pliku: 755.37 MB
    Rozmiar segmentu: 7.00 MB
    Liczba segmentów: 108
    Liczba mirrorów: 9
    Hasło: www.ufs.pl

    Masz problem z programem MoorHunt? Zajrzyj do działu Poradniki & FAQ tego programu.
    Zalecamy pobieranie za pomocą MailShare


    Jeżeli nie widzisz hashcode i nie wiesz co zrobić kliknij tutaj






    Przepraszamy, ale nie możesz zobaczyć tego tematu. Musisz sie Zarejestrować
    albo Zalogować

    Upload zawiera 10% danych naprawczych!
    Jak korzystać z danych naprawczych? Tutaj znajdziesz poradnik!
    Upload wykonany w MH 0.6.7.2
    Ostatnio edytowane przez Szynek ; 06-08-2011 o 19:56

  2.    Sponsored Links




  3. #2
    Retired Awatar depciak
     Info : 
    Dołączył
    Sep 2007
    Skąd
    Rzeszów
    Posty
    3,840
     Podziękowania : 
    Podziękował: 3
    Doceniono: 157 razy w 67 postach
     UFS Stats Uploady : 
    Filmy: 94
    Gry: 69
    TV's: 51
    Muzyka: 4
    Porno: 6
    Małe uploady: 2
     UFS Stats Konta : 
    Gmail: 418
    Inne: 174
     Total Upload : 
    P2M UP: 1519.25 GB
     Total CA : 
    Total CA: 21035 AC
    depciak jest nieaktywny

    Domyślnie

    niezatwierdzone
    Ostatnio edytowane przez depciak ; 06-08-2011 o 16:37
    1234567890

  4. #3
    Full Member Awatar robibruer
     Info : 
    Dołączył
    Nov 2007
    Skąd
    Katowice
    Posty
    969
     Podziękowania : 
    Podziękował: 813
    Doceniono: 2 raz w 1 poście
    robibruer jest nieaktywny

    Domyślnie

    wszystko ok
    jakosc srednia,
    ale film raczej dla dzieci niz starszych filmowcow.

Informacje o wątku

Użytkownicy przeglądający ten wątek

Aktualnie 1 użytkownik(ów) przegląda ten wątek. (0 zarejestrowany(ch) oraz 1 gości)

Podobne wątki

  1. Super 8 [2011][DVDScr][AC3][ENG]
    Przez Szynek w dziale HQ (High Quality - Wysoka Jakość)
    Odpowiedzi: 3
    Ostatni post / autor: 09-08-2011, 16:47

Uprawnienia umieszczania postów

  • Nie możesz zakładać nowych tematów
  • Nie możesz pisać wiadomości
  • Nie możesz dodawać załączników
  • Nie możesz edytować swoich postów
  •