Aktualizacje seriali
 



Ogłoszenia
UFS - dotacje
Dotacje SMS
Jak korzystać z forumowej szukajki



Pokaż wyniki od 1 do 2 z 2

Wątek: Born to ride [2011][DVDRip][AC3][ENG]

  1. #1
    Szynka jest tylko jedna
     Info : 
    Dołączył
    Jun 2009
    Posty
    944
     Podziękowania : 
    Podziękował: 38
    Doceniono: 686 razy w 167 postach
     UFS Stats Uploady : 
    Filmy: 302
    Gry: 43
    Programy: 2
    TV's: 45
    Muzyka: 1
    Porno: 15
    Inne: 2
    Małe uploady: 13
     UFS Stats Konta : 
    Gmail: 1
    Inne: 5
     Total Upload : 
    P2M UP: 1023.95 GB
     Total CA : 
    Total CA: 35 AC
    Szynek jest nieaktywny

    mh Born to ride [2011][DVDRip][AC3][ENG]

    Born to ride



    Born to Ride (2011)
    90 min - Action - 26 July 2011 (USA)

    Director: James Fargo
    Witers: Robert Vozza (screenplay), Mike Anthony Jones (screenplay)
    Stars: Casper Van Dien, Patrick Muldoon and William Forsythe



    Description:
    The stars of Starship Troopers are back in action! Mike (Casper Van Dien) decides to hit the road on his refurbished classic motorcycle along with best buddy Alex (Patrick Muldoon), but their trek takes a surprising turn when they become involved in a plan involving political blackmail, corruption, and dirty money. Carrying evidence that could get them killed at any minute, the boys are chased on the open road but turn their skills to their own advantage. William Forsythe (Raising Arizona) and Theresa Russell (Wild Things) also star in this gun-blazing, rip-roaring adventure from the director of Every Which Way But Loose you ll never forget!



    Mike Callahan - Casper Van Dien
    Alex - Patrick Muldoon
    Jack Steele - William Forsythe
    Frances Callahan - Theresa Russell
    Vic - Jack Maxwell









    General
    Complete name: Born.To.Ride.2011.DVDRiP.XviD.AC3-SiC.avi
    Format: AVI
    Format/Info: Audio Video Interleave
    File size: 1.27 GiB
    Duration: 1h 30mn
    Overall bit rate: 2 024 Kbps
    Writing library: VirtualDub build 32839/release

    Video
    ID: 0
    Format: MPEG-4 Visual
    Format profile: Advanced Simple@L5
    Format settings, BVOP: 1
    Format settings, QPel: No
    Format settings, GMC: No warppoints
    Format settings, Matrix: Default (H.263)
    Codec ID: XVID
    Codec ID/Hint: XviD
    Duration: 1h 30mn
    Bit rate: 1 700 Kbps
    Width: 720 pixels
    Height: 384 pixels
    Display aspect ratio: 1.875
    Frame rate: 23.976 fps
    Color space: YUV
    Chroma subsampling: 4:2:0
    Bit depth: 8 bits
    Scan type: Progressive
    Compression mode: Lossy
    Bits/(Pixel*Frame): 0.256
    Stream size: 1.07 GiB (84%)
    Writing library: XviD 1.2.1 (UTC 2008-12-04)

    Audio
    ID: 1
    Format: AC-3
    Format/Info: Audio Coding 3
    Mode extension: CM (complete main)
    Codec ID: 2000
    Duration: 1h 30mn
    Bit rate mode: Constant
    Bit rate: 320 Kbps
    Channel(s): 6 channels
    Channel positions: Front: L C R, Side: L R, LFE
    Sampling rate: 48.0 KHz
    Bit depth: 16 bits
    Compression mode: Lossy
    Delay relative to video: 500ms
    Stream size: 206 MiB (16%)
    Alignment: Split accross interleaves



    Nazwa pliku: Born.To.Ride.2011.DVDRiP.XviD.AC3-SiC.avi
    Rozmiar Pliku: 1.27 GB
    Rozmiar segmentu: 7.00 MB
    Liczba segmentów: 187
    Liczba mirrorów: 11
    Hasło: www.ufs.pl

    Masz problem z programem MoorHunt? Zajrzyj do działu Poradniki & FAQ tego programu.
    Zalecamy pobieranie za pomocą MailShare







    Przepraszamy, ale nie możesz zobaczyć tego tematu. Musisz sie Zarejestrować
    albo Zalogować

    Upload wykonany w MH 0.6.7.2

  2. Liczba osób które doceniły autora: 1


  3.    Sponsored Links




  4. #2
    Retired Awatar depciak
     Info : 
    Dołączył
    Sep 2007
    Skąd
    Rzeszów
    Posty
    3,840
     Podziękowania : 
    Podziękował: 3
    Doceniono: 157 razy w 67 postach
     UFS Stats Uploady : 
    Filmy: 94
    Gry: 69
    TV's: 51
    Muzyka: 4
    Porno: 6
    Małe uploady: 2
     UFS Stats Konta : 
    Gmail: 418
    Inne: 174
     Total Upload : 
    P2M UP: 1519.25 GB
     Total CA : 
    Total CA: 21035 AC
    depciak jest nieaktywny

    Domyślnie

    niezatwierdzone
    1234567890

Informacje o wątku

Użytkownicy przeglądający ten wątek

Aktualnie 1 użytkownik(ów) przegląda ten wątek. (0 zarejestrowany(ch) oraz 1 gości)

Podobne wątki

  1. Born to race [2011][DVDRip][ENG]
    Przez Szynek w dziale HQ (High Quality - Wysoka Jakość)
    Odpowiedzi: 1
    Ostatni post / autor: 17-09-2011, 16:03

Uprawnienia umieszczania postów

  • Nie możesz zakładać nowych tematów
  • Nie możesz pisać wiadomości
  • Nie możesz dodawać załączników
  • Nie możesz edytować swoich postów
  •