Aktualizacje seriali
 



Ogłoszenia
UFS - dotacje
Dotacje SMS
Jak korzystać z forumowej szukajki



Pokaż wyniki od 1 do 2 z 2

Wątek: Source Code [2011][BRRip][ENG]

  1. #1
    .::dEpeChe mOde::. Awatar DM
     Info : 
    Dołączył
    Mar 2008
    Skąd
    Klucze
    Posty
    2,583
     Podziękowania : 
    Podziękował: 666
    Doceniono: 40,361 razy w 269 postach
     UFS Stats Uploady : 
    Filmy: 347
    Gry: 16
    Programy: 1
    TV's: 43
    Muzyka: 3
    Porno: 7
    Inne: 9
     UFS Stats Konta : 
    Gmail: 36
    Inne: 79
     Total Upload : 
    P2M UP: 1723.92 GB
     Total CA : 
    Total CA: 1275 AC
    DM jest nieaktywny

    mh Source Code [2011][BRRip][ENG]


    Kod nieśmiertelności

    Produkcja: Francja | USA | Kanada
    Gatunek: Sci-Fi | Akcja | Thriller
    Data Premiery: 2011-05-06 (kino), 2011-03-11 (świat)
    Reżyseria: Duncan Jones
    Scenariusz: Ben Ripley
    Czas trwania: 93 minut

    Kapitan Colter Stevens (Jake Gyllenhaal) budzi się w jadącym z dużą prędkością pociągu. Nie poznaje siedzącej obok niego dziewczyny, nie wie, gdzie jest. Po 8 minutach od jego przebudzenia pociąg eksploduje. Wtedy mężczyzna przekonuje się, że bierze udział w rządowym eksperymencie o nazwie: "Kod nieśmiertelności", który pozwala na wejście w ciało innego człowieka na ostatnich 8 minut jego życia. Zadaniem Stevensa jest rozpoznanie i powstrzymanie zagrażającego całemu Chicago terrorysty podkładającego bomby. "Kod nieśmiertelności" pozwala wracać na miejsce zdarzeń wielokrotnie i żołnierz z każdym powrotem na ostatnich 8 minut życia pasażerów pociągu będzie wiedział coraz więcej. Czy uda mu się znaleźć i powstrzymać atak bombowy… który już się wydarzył? (opis dystrybutora)

    Jake Gyllenhaal - Colter
    Michelle Monaghan - Christina
    Vera Farmiga - Goodwin
    Jeffrey Wright - Rutledge
    Russell Peters - Max Denoff
    Joe Cobden - Technik laboratoryjny
    Michael Arden - Derek Frost
    Cas Anvar - Hazmi

    Video
    ID : 0
    Format : MPEG-4 Visual
    Format profile : Advanced Simple@L5
    Format settings, BVOP : Yes
    Format settings, QPel : No
    Format settings, GMC : No warppoints
    Format settings, Matrix : Default (MPEG)
    Muxing mode : Packed bitstream
    Codec ID : XVID
    Codec ID/Hint : XviD
    Duration : 1h 32mn
    Bit rate : 1 907 Kbps
    Width : 720 pixels
    Height : 400 pixels
    Display aspect ratio : 16:9
    Frame rate : 29.970 fps
    Color space : YUV
    Chroma subsampling : 4:2:0
    Bit depth : 8 bits
    Scan type : Progressive
    Bits/(Pixel*Frame) : 0.221
    Stream size : 1.24 GiB (90%)
    Writing library : XviD 58
    Audio
    ID : 1
    Format : AC-3
    Format/Info : Audio Coding 3
    Mode extension : CM (complete main)
    Codec ID : 2000
    Duration : 1h 32mn
    Bit rate mode : Constant
    Bit rate : 192 Kbps
    Channel(s) : 2 channels
    Channel positions : Front: L R
    Sampling rate : 48.0 KHz
    Bit depth : 16 bits
    Stream size : 128 MiB (9%)
    Alignment : Split accross interleaves
    Interleave, duration : 33 ms (1.00 video frame)
    Interleave, preload duration : 500 ms






    Nazwa pliku: Source.Code.2011.BRRip.KORSUB.AC3.XViD-EP1C.avi
    Ilość segmentów: 201
    Rozmiar segmentu: 7MB
    Wielkość uploadu: 1.37GB
    Ilość mirrorów: 9
    Hasło do scalenia: www.ufs.pl





    Przepraszamy, ale nie możesz zobaczyć tego tematu. Musisz sie Zarejestrować
    albo Zalogować








    Kliknij w dziękuje a zobaczysz HC

    <------------------


  2. Liczba osób które doceniły autora: 1


  3.    Sponsored Links




  4. #2
    Retired Awatar Freddy
     Info : 
    Dołączył
    Nov 2007
    Skąd
    Zasiedmiogórogrodzie
    Posty
    3,806
     Podziękowania : 
    Podziękował: 243
    Doceniono: 591 razy w 246 postach
     UFS Stats Uploady : 
    Filmy: 179
    Gry: 159
    Programy: 5
    TV's: 143
    Muzyka: 26
    Porno: 52
    Inne: 4
    Małe uploady: 3
     UFS Stats Konta : 
    Gmail: 95
    Inne: 410
     Total Upload : 
    P2M UP: 1538.4 GB
     Total CA : 
    Total CA: 9305 AC
    Freddy jest nieaktywny

    Domyślnie

    niezatwierdzone
    Ostatnio edytowane przez Freddy ; 13-06-2011 o 20:43



    ----


    ----


    100% moich uploadów spakowanych w rarze zawiera dane naprawcze.
    ----

Informacje o wątku

Użytkownicy przeglądający ten wątek

Aktualnie 1 użytkownik(ów) przegląda ten wątek. (0 zarejestrowany(ch) oraz 1 gości)

Uprawnienia umieszczania postów

  • Nie możesz zakładać nowych tematów
  • Nie możesz pisać wiadomości
  • Nie możesz dodawać załączników
  • Nie możesz edytować swoich postów
  •