Aktualizacje seriali
 



Ogłoszenia
UFS - dotacje
Dotacje SMS
Jak korzystać z forumowej szukajki



Pokaż wyniki od 1 do 2 z 2

Wątek: Hanna [2011][R5][AC3][ENG]

  1. #1
    .::dEpeChe mOde::. Awatar DM
     Info : 
    Dołączył
    Mar 2008
    Skąd
    Klucze
    Posty
    2,583
     Podziękowania : 
    Podziękował: 666
    Doceniono: 40,359 razy w 269 postach
     UFS Stats Uploady : 
    Filmy: 347
    Gry: 16
    Programy: 1
    TV's: 43
    Muzyka: 3
    Porno: 7
    Inne: 9
     UFS Stats Konta : 
    Gmail: 36
    Inne: 79
     Total Upload : 
    P2M UP: 1723.92 GB
     Total CA : 
    Total CA: 1275 AC
    DM jest nieaktywny

    mh Hanna [2011][R5][AC3][ENG]

    Hanna /
    Produkcja: Wielka Brytania | Niemcy | USA
    Gatunek: Thriller | Akcja | Dramat
    Data Premiery: 2011-06-10 (kino)
    Reżyseria: Joe Wright
    Scenariusz: Seth Lochhead, David Farr
    Czas trwania: 1h 46min

    Hanna (Saoirse Ronan) to czternastolatka, która posiada siłę, wytrzymałość i mądrość żołnierza. Została tak wychowana przez swego ojca, byłego agenta CIA, w dziczy Finlandii. A wszystko po to, by stała się perfekcyjnym zabójcą. W pewnym momencie, gdy została wysłana przez ojca w świat z misją, w jej życiu pojawia się punkt zwrotny. Gdy dziewczyna zbliża się do celu swej misji musi zmierzyć się z informacjami na temat swojego istnienia i zaczyna stawiać nieoczekiwane pytania o jej człowieczeństwo. (Hsi_Nao)

    Saoirse Ronan - Hanna
    Eric Bana - Erik Heller
    Cate Blanchett - Marissa Wiegler
    Olivia Williams - Rachel
    Tom Hollander - Isaacs
    Michelle Dockery - Fałszywa Marissa
    Jessica Barden - Sophie
    Cyron Bjørn Melville...

    Video
    ID : 0
    Format : MPEG-4 Visual
    Format profile : Advanced Simple@L5
    Format settings, BVOP: Yes
    Format settings, QPel: No
    Format settings, GMC : No warppoints
    Format settings, Matrix: Default (H.263)
    Muxing mode: Packed bitstream
    Codec ID : XVID
    Codec ID/Hint: XviD
    Duration : 1h 46mn
    Bit rate : 1 450 Kbps
    Width: 720 pixels
    Height : 304 pixels
    Display aspect ratio : 2.35:1
    Frame rate : 25.000 fps
    Color space: YUV
    Chroma subsampling : 4:2:0
    Bit depth: 8 bits
    Scan type: Progressive
    Bits/(Pixel*Frame) : 0.265
    Stream size: 1.08 GiB (79%)
    Writing library: XviD 58
    Audio
    ID : 1
    Format : AC-3
    Format/Info: Audio Coding 3
    Mode extension : CM (complete main)
    Codec ID : 2000
    Duration : 1h 46mn
    Bit rate mode: Constant
    Bit rate : 384 Kbps
    Channel(s) : 6 channels
    Channel positions: Front: L C R, Side: L R, LFE
    Sampling rate: 48.0 KHz
    Bit depth: 16 bits
    Stream size: 292 MiB (21%)
    Alignment: Split accross interleaves
    Interleave, duration : 64 ms (1.60 video frames)
    Interleave, preload duration : 500 ms







    Nazwa pliku: Hanna.2011.R5.LiNE.AC3.XViD-EP1C.avi
    Ilość segmentów: 201
    Rozmiar segmentu: 7MB
    Wielkość uploadu: 1.40GB
    Ilość mirrorów: 9
    Hasło do scalenia: www.ufs.pl





    Przepraszamy, ale nie możesz zobaczyć tego tematu. Musisz sie Zarejestrować
    albo Zalogować








    Kliknij w dziękuje a zobaczysz HC

    <------------------


  2.    Sponsored Links




  3. #2
    Retired Awatar depciak
     Info : 
    Dołączył
    Sep 2007
    Skąd
    Rzeszów
    Posty
    3,840
     Podziękowania : 
    Podziękował: 3
    Doceniono: 157 razy w 67 postach
     UFS Stats Uploady : 
    Filmy: 94
    Gry: 69
    TV's: 51
    Muzyka: 4
    Porno: 6
    Małe uploady: 2
     UFS Stats Konta : 
    Gmail: 418
    Inne: 174
     Total Upload : 
    P2M UP: 1519.25 GB
     Total CA : 
    Total CA: 21035 AC
    depciak jest nieaktywny

    Domyślnie

    niezatwierdzone
    Ostatnio edytowane przez depciak ; 10-06-2011 o 15:39
    1234567890

Informacje o wątku

Użytkownicy przeglądający ten wątek

Aktualnie 1 użytkownik(ów) przegląda ten wątek. (0 zarejestrowany(ch) oraz 1 gości)

Podobne wątki

  1. Hanna [2011][R5][ENG][AC3]
    Przez Pumbek w dziale HQ (High Quality - Wysoka Jakość)
    Odpowiedzi: 1
    Ostatni post / autor: 05-06-2011, 14:01

Uprawnienia umieszczania postów

  • Nie możesz zakładać nowych tematów
  • Nie możesz pisać wiadomości
  • Nie możesz dodawać załączników
  • Nie możesz edytować swoich postów
  •