Aktualizacje seriali
 



Ogłoszenia
UFS - dotacje
Dotacje SMS
Jak korzystać z forumowej szukajki



Pokaż wyniki od 1 do 4 z 4

Wątek: Priest [2011][R5][AC3][ENG]

  1. #1
    .::dEpeChe mOde::. Awatar DM
     Info : 
    Dołączył
    Mar 2008
    Skąd
    Klucze
    Posty
    2,583
     Podziękowania : 
    Podziękował: 666
    Doceniono: 40,361 razy w 269 postach
     UFS Stats Uploady : 
    Filmy: 347
    Gry: 16
    Programy: 1
    TV's: 43
    Muzyka: 3
    Porno: 7
    Inne: 9
     UFS Stats Konta : 
    Gmail: 36
    Inne: 79
     Total Upload : 
    P2M UP: 1723.92 GB
     Total CA : 
    Total CA: 1275 AC
    DM jest nieaktywny

    mh Priest [2011][R5][AC3][ENG]

    Ksiądz
    Priest




    Produkcja: USA
    Gatunek: Akcja | Horror
    Data Premiery: 2011-05-13 (kino), 2011 (świat)
    Reżyseria: Scott Stewart
    Scenariusz: Cory Goodman, Min-Woo Hyung (komiks)
    Czas trwania:
    Dystrybucja: UIP - United International Pictures
    Ocena: 7.5



    Ekranizacja komiksu pod tym samym tytułem. Świat od wieków pogrążony jest w wojnie pomiędzy ludźmi a wampirami. Tytułowy bohater buntuje się przeciwko prawu kościoła i rusza na krwawe łowy, tropem bandy morderczych wampirów, które uprowadziły jego siostrę. (alienK)



    Ksiądz - Paul Bettany
    Hicks - Cam Gigandet
    Kapłanka - Maggie Q
    Mężczyzna w czarnym kapeluszu - Karl Urban
    Lucy Pace - Lily Collins
    Owen Pace - Stephen Moyer
    Prałat Orelas - Christopher Plummer
    Sprzedawca - Brad Dourif











    Plik:Priest.2011.R5.LiNE.AC3.XViD-EP1C.avi
    Video:Format : MPEG-4 Visual
    Format profile : Advanced Simple@L5
    Format settings, BVOP : Yes
    Format settings, QPel : No
    Format settings, GMC : No warppoints
    Format settings, Matrix : Custom
    Codec ID : XVID
    Codec ID/Hint : XviD
    Duration : 1h 23mn
    Bit rate : 1 880 Kbps
    Width : 720 pixels
    Height : 304 pixels
    Display aspect ratio : 2.35:1
    Frame rate : 25.000 fps
    Color space : YUV
    Chroma subsampling : 4:2:0
    Bit depth : 8 bits
    Scan type : Progressive
    Bits/(Pixel*Frame) : 0.344
    Stream size : 1.10 GiB (80%)
    Writing library : XviD 58

    Audio:ID : 1
    Format : AC-3
    Format/Info : Audio Coding 3
    Mode extension : CM (complete main)
    Codec ID : 2000
    Duration : 1h 23mn
    Bit rate mode : Constant
    Bit rate : 448 Kbps
    Channel(s): 6 channels
    Channel positions : Front: L C R, Side: L R, LFE
    Sampling rate : 48.0 KHz
    Bit depth : 16 bits
    Video delay : 16ms
    Stream size : 268 MiB (19%)
    Alignment : Split accross interleaves
    Interleave, duratio : 40 ms (1.00 video frame)
    Interleave, preload duration : 500 ms




    Nazwa pliku:Priest.2011.R5.LiNE.AC3.XViD-EP1C.avi
    Ilość plików na koncie:201
    Rozmiar segmentu:7MB
    Wielkość uploadu:1.40 GB
    Ilość mirrorów:9
    Hasło: www.ufs.pl

    Masz problem z programem MoorHunt? Zajrzyj do działu Poradniki & FAQ tego programu.
    Zalecamy pobieranie za pomocą MailShare







    Przepraszamy, ale nie możesz zobaczyć tego tematu. Musisz sie Zarejestrować
    albo Zalogować

    Upload wykonany w MH 0.6.7.2







    Kliknij w dziękuje a zobaczysz HC

    <------------------


  2.    Sponsored Links




  3. #2
    Uwaga k0 bieta Awatar Silka
     Info : 
    Dołączył
    Mar 2008
    Skąd
    śląsk
    Posty
    2,256
     Podziękowania : 
    Podziękował: 14
    Doceniono: 215 razy w 74 postach
     UFS Stats Uploady : 
    Filmy: 51
    Gry: 9
    Programy: 7
    TV's: 156
    Muzyka: 139
    Inne: 1
    Małe uploady: 8
     UFS Stats Konta : 
    Gmail: 14
    Inne: 20
     Total Upload : 
    P2M UP: 271.3 GB
     Total CA : 
    Total CA: 495 AC
    Silka jest nieaktywny

    Domyślnie

    niezatwierdzone
    Ostatnio edytowane przez Silka ; 02-06-2011 o 22:28




    "...Jeśli któregoś dnia, ktoś zarzuci Ci, że Twoja praca nie jest profesjonalna, powiedz sobie, że Arkę Noego zbudowali amatorzy a Titanic'a profesjonaliści..."



    Trial -> 31.01.10 Uploader -> 14.09.10 Elita -> 6.11.10 Moderator -> 11.06.12 Retired -> 11.11.12 Elita ->21.04.2013 Retired

    Mail Resender



  4. #3
    VIP
     Info : 
    Dołączył
    Nov 2007
    Skąd
    Sierak?w ?l
    Posty
    180
     Podziękowania : 
    Podziękował: 134
    Doceniono: 0 razy w 0 postach
    marci00034 jest nieaktywny

    Domyślnie

    napiprojekt znajduje napisy?:)

  5. #4
    Full Member Awatar robibruer
     Info : 
    Dołączył
    Nov 2007
    Skąd
    Katowice
    Posty
    969
     Podziękowania : 
    Podziękował: 813
    Doceniono: 2 raz w 1 poście
    robibruer jest nieaktywny

    Domyślnie

    wszystko ładnie pobrane bez problemów
    dzięki
    film bardzo średni 4/10

Informacje o wątku

Użytkownicy przeglądający ten wątek

Aktualnie 1 użytkownik(ów) przegląda ten wątek. (0 zarejestrowany(ch) oraz 1 gości)

Podobne wątki

  1. Priest [2011][R5][ENG][AC3]
    Przez Pumbek w dziale HQ (High Quality - Wysoka Jakość)
    Odpowiedzi: 1
    Ostatni post / autor: 07-06-2011, 19:07

Uprawnienia umieszczania postów

  • Nie możesz zakładać nowych tematów
  • Nie możesz pisać wiadomości
  • Nie możesz dodawać załączników
  • Nie możesz edytować swoich postów
  •