Aktualizacje seriali
 



Ogłoszenia
UFS - dotacje
Dotacje SMS
Jak korzystać z forumowej szukajki



Pokaż wyniki od 1 do 2 z 2

Wątek: The Ward [2010][DVDScr][AC3][ENG]

  1. #1
    "Racja jest jak dupa, każdy ma swoją" Awatar Yaro
     Info : 
    Dołączył
    Jan 2008
    Posty
    2,075
     Podziękowania : 
    Podziękował: 247
    Doceniono: 1,612 razy w 88 postach
     UFS Stats Uploady : 
    Filmy: 204
    Gry: 69
    Programy: 6
    TV's: 154
    Muzyka: 25
    Porno: 12
    Inne: 13
    Małe uploady: 3
     UFS Stats Konta : 
    Gmail: 361
    Inne: 253
     Total Upload : 
    P2M UP: 642.8 GB
     Total CA : 
    Total CA: 15220 AC
    Yaro jest nieaktywny

    mh The Ward [2010][DVDScr][AC3][ENG]

    The Ward

    The.Ward.2011.DvDScr.XviD.Feel-Free



    Produkcja:USA
    Gatunek: Horror
    Data Premiery: (Świat) 2010-09-13,
    Reżyseria: John Carpenter
    Scenariusz: Shawn Rasmussen, Michael Rasmussen
    Muzyka: John Carpenter
    Zdjęcia: Yaron Orbach
    Czas trwania: 88 min.



    Najnowszy horror Johna Carpentera. Kristen (Amber Heard) odbywa leczenie w szpitalu psychiatrycznym. Razem z nią są jeszcze cztery dziewczyny. W nocy, kiedy szpital pogrąża się w ciemności, słyszy dziwne, przerażające dźwięki i pojmuje, że nie są tutaj same. Tymczasem jedna za drugą dziewczyny zaczynają znikać i Kristen postanawia jak najszybciej stąd uciec... (dark-project.org)



    Amber Heard, Lyndsy Fonseca, Danielle Panabaker, Mika Boorem









    Video
    ID : 0
    Format : MPEG-4 Visual
    Format profile : Advanced Simple@L5
    Format settings, BVOP : Yes
    Format settings, QPel : No
    Format settings, GMC : No warppoints
    Format settings, Matrix : Default (H.263)
    Codec ID : XVID
    Codec ID/Hint : XviD
    Duration : 1h 32mn
    Bit rate : 926 Kbps
    Width : 640 pixels
    Height : 272 pixels
    Display aspect ratio : 2.35:1
    Frame rate : 23.976 fps
    Color space : YUV
    Chroma subsampling : 4:2:0
    Bit depth : 8 bits
    Scan type : Progressive
    Bits/(Pixel*Frame) : 0.222
    Stream size : 611 MiB (82%)
    Writing library : XviD 1.2.1 (UTC 2008-12-04)

    Audio
    ID : 1
    Format : AC-3
    Format/Info : Audio Coding 3
    Mode extension : CM (complete main)
    Codec ID : 2000
    Duration : 1h 32mn
    Bit rate mode : Constant
    Bit rate : 192 Kbps
    Channel(s) : 2 channels
    Channel positions : Front: L R
    Sampling rate : 48.0 KHz
    Bit depth : 16 bits
    Stream size : 127 MiB (17%)
    Alignment : Aligned on interleaves
    Interleave, duration : 42 ms (1.00 video frame)
    Interleave, preload duration : 512 ms



    Nazwa pliku: The.Ward.2011.DvDScr.XviD.Feel-Free.avi
    Ilość plików na koncie: 107
    Rozmiar segmentu: 7 mb
    Wielkość uploadu: 743,42 MB
    Ilość mirrorów: 8
    Hasło do scalenia: www.ufs.pl

    Masz problem z programem Moorhunt? Zajrzyj do działu Poradniki & FAQ tego programu.
    Zalecamy pobieranie za pomocą MailShare







    Przepraszamy, ale nie możesz zobaczyć tego tematu. Musisz sie Zarejestrować
    albo Zalogować


  2.    Sponsored Links




  3. #2
    Retired Awatar depciak
     Info : 
    Dołączył
    Sep 2007
    Skąd
    Rzeszów
    Posty
    3,840
     Podziękowania : 
    Podziękował: 3
    Doceniono: 157 razy w 67 postach
     UFS Stats Uploady : 
    Filmy: 94
    Gry: 69
    TV's: 51
    Muzyka: 4
    Porno: 6
    Małe uploady: 2
     UFS Stats Konta : 
    Gmail: 418
    Inne: 174
     Total Upload : 
    P2M UP: 1519.25 GB
     Total CA : 
    Total CA: 21035 AC
    depciak jest nieaktywny

    Domyślnie

    niezatwierdzone
    1234567890

Informacje o wątku

Użytkownicy przeglądający ten wątek

Aktualnie 1 użytkownik(ów) przegląda ten wątek. (0 zarejestrowany(ch) oraz 1 gości)

Podobne wątki

  1. The Ward [2010][BDRip][ENG]
    Przez Szynek w dziale HQ (High Quality - Wysoka Jakość)
    Odpowiedzi: 1
    Ostatni post / autor: 05-08-2011, 14:19
  2. The Ward [2010][DVDRip][AC3][ENG]
    Przez eMPeK w dziale HQ (High Quality - Wysoka Jakość)
    Odpowiedzi: 1
    Ostatni post / autor: 17-07-2011, 22:33

Uprawnienia umieszczania postów

  • Nie możesz zakładać nowych tematów
  • Nie możesz pisać wiadomości
  • Nie możesz dodawać załączników
  • Nie możesz edytować swoich postów
  •