Aktualizacje seriali
 



Ogłoszenia
UFS - dotacje
Dotacje SMS
Jak korzystać z forumowej szukajki



Pokaż wyniki od 1 do 2 z 2

Wątek: Królestwo [2007][BDRip][720p][AC3][LEK-PL]

  1. #1
    Retired Awatar Młody
     Info : 
    Dołączył
    Feb 2008
    Skąd
    Urzejowice
    Posty
    2,285
     Podziękowania : 
    Podziękował: 42
    Doceniono: 319 razy w 96 postach
     UFS Stats Uploady : 
    Filmy: 67
    Gry: 24
    TV's: 34
    Muzyka: 58
    Porno: 2
     UFS Stats Konta : 
    Gmail: 122
    Inne: 237
     Total Upload : 
    P2M UP: 556.7 GB
     Total CA : 
    Total CA: 10670 AC
    Młody jest nieaktywny

    mh Królestwo [2007][BDRip][720p][AC3][LEK-PL]

    Królestwo / The Kingdom



    Produkcja: Niemcy | USA
    Gatunek: Akcja | Dramat | Thriller
    Data Premiery: 2008-02-08 (kino), 2007-08-22 (świat), 2008-07-10 (dvd)
    Reżyseria: Peter Berg
    Scenariusz: Matthew Michael Carnahan
    Zdjęcia: MAURO FIORE, ASC
    Muzyka: DANNY ELFMAN
    Czas trwania: 110 minut



    W ataku przeprowadzonym na osiedle mieszkaniowe w stolicy Arabii Saudyjskiej, przez zamachowców – samobójców zginęło ponad 100 i ranionych zostało około 200 pracowników kompanii naftowej i ich rodzin. Podczas, gdy biurokraci prowadzą przedłużające się rozmowy, do akcji wkracza agent specjalny Ronald Fleury (Jamie Foxx) i jego zespół. Mają pięć dni na to, aby odnaleźć sterującego zamachami bombowymi szaleńca i powstrzymać go przed kolejnym atakiem. (opis dystrybutora)



    Jamie Foxx - Ronald Fluery
    Jennifer Garner - Janet Mayes
    Jason Bateman - Adam Leavitt
    Chris Cooper - Grant Sykes
    Brooke Langton - Glenda Manner
    Trevor St. John - Earl Ripon
    Jeremy Piven - Damon Schmidt
    Yasmine Hanani - Ciotka



    General
    Format : AVI
    Format/Info : Audio Video Interleave
    Format profile : OpenDML
    File size : 3.33 GiB
    Duration : 1h 49mn
    Overall bit rate : 4 345 Kbps
    Writing application : VirtualDubMod 1.5.10.2 (build 2540/release)
    Writing library : VirtualDubMod build 2540/release

    Video
    ID : 0
    Format : MPEG-4 Visual
    Format profile : Advanced Simple@L5
    Format settings, BVOP : Yes
    Format settings, QPel : No
    Format settings, GMC : No warppoints
    Format settings, Matrix : Default (H.263)
    Muxing mode : Packed bitstream
    Codec ID : XVID
    Codec ID/Hint : XviD
    Duration : 1h 49mn
    Bit rate : 3 695 Kbps
    Width : 1 280 pixels
    Height : 540 pixels
    Display aspect ratio : 2.35:1
    Frame rate : 23.976 fps
    Color space : YUV
    Chroma subsampling : 4:2:0
    Bit depth : 8 bits
    Scan type : Progressive
    Bits/(Pixel*Frame) : 0.223
    Stream size : 2.83 GiB (85%)
    Writing library : XviD 58

    Audio
    ID : 1
    Format : AC-3
    Format/Info : Audio Coding 3
    Mode extension : CM (complete main)
    Codec ID : 2000
    Duration : 1h 49mn
    Bit rate mode : Constant
    Bit rate : 640 Kbps
    Channel(s) : 6 channels
    Channel positions : Front: L C R, Side: L R, LFE
    Sampling rate : 48.0 KHz
    Bit depth : 16 bits
    Stream size : 502 MiB (15%)
    Alignment : Split accross interleaves
    Interleave, duration : 42 ms (1.00 video frame)
    Interleave, preload duration : 500 ms














    Nazwa pliku: krolestwo
    Ilość segmentów: 2x220, 1x102
    Rozmiar segmentu: 7 MB
    Wielkość uploadu: 3,7 GB
    Ilość mirrorów: 3x9
    Hasło do scalenia: www.ufs.pl







    Przepraszamy, ale nie możesz zobaczyć tego tematu. Musisz sie Zarejestrować
    albo Zalogować

    Upload zawiera 10% danych naprawczych!
    Jak korzystać z danych naprawczych? Tutaj znajdziesz poradnik!
    Ostatnio edytowane przez Azuel ; 08-11-2013 o 17:09




  2. Liczba osób które doceniły autora: 3


  3.    Sponsored Links




  4. #2
    "Why so Serious?!" Awatar Azuel
     Info : 
    Dołączył
    Feb 2013
    Skąd
    Rybnik
    Posty
    5,203
     Podziękowania : 
    Podziękował: 1,077
    Doceniono: 3,985 razy w 363 postach
     UFS Stats Uploady : 
    Filmy: 146
    Gry: 54
    Programy: 6
    TV's: 15
    Muzyka: 4
    Porno: 26
    Inne: 7
    Małe uploady: 2
     UFS Stats Konta : 
    Gmail: 60
    Inne: 190
     Total Upload : 
    P2M UP: 1721.8 GB
     Total CA : 
    Total CA: 5095 AC
    Azuel jest nieaktywny

    Domyślnie



    Każdy mój upload w archiwum zawiera dane naprawcze!



    Jeżeli mirrory nie działają lub brakuje segmentów, napisz mi informację z linkiem do tematu > Tutaj <

    Member > Full Member > UFS Uploader > Super Uploader > ELITE Uploader > Moderator > Super Moderator > Retired

Informacje o wątku

Użytkownicy przeglądający ten wątek

Aktualnie 1 użytkownik(ów) przegląda ten wątek. (0 zarejestrowany(ch) oraz 1 gości)

Podobne wątki

  1. 4.5GB Królestwo Niebieskie [2005][BDRip][720p][AC3][LEK-PL]
    Przez adam12 w dziale Filmy High Definition [Dział od rangi Full Member]
    Odpowiedzi: 1
    Ostatni post / autor: 06-11-2013, 21:51
  2. 5.5GB Królestwo niebieskie - Director's Cut [2005][BDRip][720p][AC3][LEK-PL]
    Przez akira5 w dziale Filmy High Definition [Dział od rangi Full Member]
    Odpowiedzi: 1
    Ostatni post / autor: 26-02-2013, 19:26

Uprawnienia umieszczania postów

  • Nie możesz zakładać nowych tematów
  • Nie możesz pisać wiadomości
  • Nie możesz dodawać załączników
  • Nie możesz edytować swoich postów
  •