Aktualizacje seriali
 



Ogłoszenia
UFS - dotacje
Dotacje SMS
Jak korzystać z forumowej szukajki



Pokaż wyniki od 1 do 3 z 3

Wątek: Rome [sezon 2][2007][DVDRip][AC3][ENG]

  1. #1
    Retired Awatar Look
     Info : 
    Dołączył
    Jan 2008
    Posty
    4,498
     Podziękowania : 
    Podziękował: 925
    Doceniono: 20,533 razy w 334 postach
     UFS Stats Uploady : 
    Filmy: 595
    Gry: 59
    Programy: 1
    TV's: 72
    Muzyka: 13
    Porno: 1
    Inne: 4
     UFS Stats Konta : 
    Gmail: 172
    Inne: 121
     Total Upload : 
    P2M UP: 2456.2 GB
     Total CA : 
    Total CA: 8670 AC
    Look jest nieaktywny

    mh Rome [sezon 2][2007][DVDRip][AC3][ENG]

    Rome [sezon 2]



    Produkcja: USA/GB
    Gatunek: dramat historyczny
    Data Premiery: (Polska), 2005-08-28 (Świat)
    Reżyseria:
    Scenariusz:
    Zdjęcia: Marco Pontecorvo , Alik Sakharov(więcej...)
    Muzyka: Jeff Beal
    Czas trwania:



    Akcja serialu rozpoczyna się w 52 r. p.n.e. Gajusz Juliusz Cezar po ośmioletniej wojnie, podczas której dokonał mistrzowskiego podboju Galii, przygotowuje się do powrotu. Kieruje się w stronę Rzymu wraz z tysiącami lojalnych i zaprawionych w boju żołnierzy, dużym łupem w postaci złota i niewolników, oraz radykalnymi planami zmian. Arystokracja, przerażona siłą i potencjałem Cezara, grozi oskarżeniem go o zbrodnie wojenne. Przyjaciel i mentor Cezara, Pompejusz Wielki, stara się wzniecić bunt, aby więcej



    Kevin McKidd - Lucjusz Worenus
    Ray Stevenson - Tytus Pullo
    Ciarán Hinds - Juliusz Cezar
    James Purefoy - Marek Antoniusz
    Polly Walker - Atia
    Lindsay Duncan - Serwilia
    Tobias Menzies - Marek Juniusz Brutus
    Kerry Condon - Oktawia
    Aaron Johnson - Oktawian
    Indira Varma - Niobe



    Format : AVI
    Format/Info : Audio Video Interleave
    File size : 698 MiB
    Duration : 57mn 50s
    Overall bit rate : 1 687 Kbps
    Writing application : Nandub v1.0rc2
    Writing library : Nandub build 1853/release

    Video
    Format : MPEG-4 Visual
    Format profile : Streaming Video@L1
    Format settings, BVOP : Yes
    Format settings, QPel : No
    Format settings, GMC : No warppoints
    Format settings, Matrix : Default
    Muxing mode : Packed bitstream
    Codec ID : XVID
    Codec ID/Hint : XviD
    Duration : 57mn 50s
    Bit rate : 1 232 Kbps
    Width : 624 pixels
    Height : 352 pixels
    Display aspect ratio : 16/9
    Frame rate : 23.976 fps
    Resolution : 24 bits
    Colorimetry : 4:2:0
    Scan type : Progressive
    Bits/(Pixel*Frame) : 0.234
    Stream size : 510 MiB (73%)
    Writing library : XviD 1.2.0SMP (UTC 2006-01-08)

    Audio
    Format : AC-3
    Format/Info : Audio Coding 3
    Codec ID : 2000
    Duration : 57mn 49s
    Bit rate mode : Constant
    Bit rate : 448 Kbps
    Channel(s) : 6 channels
    Channel positions : Front: L C R, Surround: L R, LFE
    Sampling rate : 48.0 KHz
    Stream size : 185 MiB (27%)
    Alignment : Split accross interleaves
    Interleave, duration : 96 ms (2.30 video frames)
    Interleave, preload duration : 500 ms








    Nazwa pliku:rome.2x05.heroes_of_the_republic.dvdrip_xvid-fov.avi
    Ilość segmentów: 10*100
    Rozmiar segmentu: 7mb
    Wielkość uploadu: 7gb
    Ilość mirrorów: 9
    Hasło do scalenia: www.ufs.pl







    Przepraszamy, ale nie możesz zobaczyć tego tematu. Musisz sie Zarejestrować
    albo Zalogować

    Ostatnio edytowane przez Look ; 08-04-2011 o 14:47


    MEMBER > FULL MEMBER > UFS TRIAL > KREATOR > FULL MEMBER > UFS TRIAL > UPLOADER > SUPER UPLOADER > UFS ELITE>MODERATOR>


    +


  2. Liczba osób które doceniły autora: 1


  3.    Sponsored Links




  4. #2
    Retired Awatar depciak
     Info : 
    Dołączył
    Sep 2007
    Skąd
    Rzeszów
    Posty
    3,840
     Podziękowania : 
    Podziękował: 3
    Doceniono: 157 razy w 67 postach
     UFS Stats Uploady : 
    Filmy: 94
    Gry: 69
    TV's: 51
    Muzyka: 4
    Porno: 6
    Małe uploady: 2
     UFS Stats Konta : 
    Gmail: 418
    Inne: 174
     Total Upload : 
    P2M UP: 1519.25 GB
     Total CA : 
    Total CA: 21035 AC
    depciak jest nieaktywny

    Domyślnie

    niezatwierdzone
    Ostatnio edytowane przez depciak ; 08-04-2011 o 15:09
    1234567890

  5. #3
    Full Member
     Info : 
    Dołączył
    Jan 2008
    Posty
    346
     Podziękowania : 
    Podziękował: 334
    Doceniono: 0 razy w 0 postach
    Arosek jest nieaktywny

    Domyślnie

    Dzięki wielkie, tego szukałem ;D

Informacje o wątku

Użytkownicy przeglądający ten wątek

Aktualnie 1 użytkownik(ów) przegląda ten wątek. (0 zarejestrowany(ch) oraz 1 gości)

Podobne wątki

  1. 1.4GB Europa Universalis III & Rome [2007][PC][PL][PROPHET]
    Przez Liuk w dziale Gry PC PL [Dział od rangi Full Member]
    Odpowiedzi: 1
    Ostatni post / autor: 02-07-2013, 21:46
  2. When in Rome [2010][DVDRip][ENG]
    Przez JankieL w dziale HQ (High Quality - Wysoka Jakość)
    Odpowiedzi: 2
    Ostatni post / autor: 31-05-2010, 09:53

Uprawnienia umieszczania postów

  • Nie możesz zakładać nowych tematów
  • Nie możesz pisać wiadomości
  • Nie możesz dodawać załączników
  • Nie możesz edytować swoich postów
  •