Aktualizacje seriali
 



Ogłoszenia
UFS - dotacje
Dotacje SMS
Jak korzystać z forumowej szukajki



Pokaż wyniki od 1 do 2 z 2

Wątek: The Last Legion [2007][DVDRip][ENG]

  1. #1
    The best creator in UFS Awatar Pan Tadeusz
     Info : 
    Dołączył
    Feb 2010
    Skąd
    Biały
    Posty
    3,140
     Podziękowania : 
    Podziękował: 385
    Doceniono: 1,057 razy w 571 postach
     UFS Stats Uploady : 
    Filmy: 506
    Gry: 17
    Programy: 4
    TV's: 34
    Muzyka: 137
    Porno: 123
    Małe uploady: 4
     UFS Stats Konta : 
    Gmail: 610
    Inne: 1339
     Total Upload : 
    P2M UP: 988.2 GB
     Total CA : 
    Total CA: 96050 AC
    Pan Tadeusz jest nieaktywny

    mh The Last Legion [2007][DVDRip][ENG]

    Ostatni legion
    The Last Legion




    Produkcja: Francja | USA | Wielka Brytania | Słowacja | Włochy
    Gatunek: Przygodowy | Wojenny | Akcja
    Data Premiery: 2007-03-21 (świat), 2008-04-24 (dvd)
    Reżyseria: Doug Lefler
    Scenariusz: Jez Butterworth, Tom Butterworth
    Czas trwania: 110 minut
    Dystrybucja:
    Ocena: 6.6



    Kiedy rzymskie imperium chyliło się ku upadkowi, w 460. roku naszej ery w Indiach na świat przyszła Mira. Szkolona przez ojca w sztukach walki młoda kobieta szybko zasiliła legiony Konstantynopolu, gdzie przedstawiono ją Aureliuszowi, rzymskiemu dowódcy, któremu powierzono zadanie uwolnienia Romulusa, porwanego przez nieprzyjaciół następcy tronu. Z pomocą Ambrosiniusza, lokalnego kapłana grupa udaje się do stolicy by odkryć wielką zdradę i spisek uknuty przez senatora Nestora. Nie mając wyboru, przyjaciele udają się do Brytanii, gdzie przyjdzie im zmierzyć się z niezwyciężonym Vortygonem i legendą Ekskalibura... (opis dystrybutora)



    Aurelius - Colin Firth
    Ambrosinus - Ben Kingsley
    Mira - Aishwarya Rai
    Odoacer - Peter Mullan
    Wulfila - Kevin McKidd
    Nestor - John Hannah
    Orestes - Iain Glen
    Romulus Augustus - Thomas Sangster









    Plik:Rozmiar: 1.84 GB; Format : MPEG-4 ;Format profile : Base Media ; Codec ID : isom ; Duration : 1h 41mn ;Overall bit rate : 2 325 Kbps

    Video:Format : AVC ;Format/Info : Advanced Video Codec ;Format profile : High@L4.1 ;Format settings, CABAC : Yes ;Format settings, ReFrames : 8 frames ;Codec ID : avc1 ;Codec ID/Info : Advanced Video Coding ;Duration : 1h 41mn ;Bit rate mode : Variable ;Bit rate : 2 000 Kbps ;Maximum bit rate : 9 801 Kbps ;Width : 1 280 pixels ;Height : 536 pixels ;Display aspect ratio : 2.35 ;Frame rate mode : Constant ;Frame rate : 23.976 fps ;Resolution : 24 bits ;Colorimetry : 4:2:0 ;Scan type : Progressive ;Bits/(Pixel*Frame) : 0.122 ;Stream size : 1.42 GiB (86%) ;Writing library : x264 core 98 r1649 c54c47d

    Audio:Format : AAC ;Format/Info : Advanced Audio Codec ;Format version : Version 4 ;Format profile : LC ;Format settings, SBR : No ;Codec ID : 40 ;Duration : 1h 41mn ;Bit rate mode : Variable ;Bit rate : 321 Kbps ;Maximum bit rate : 444 Kbps ;Channel(s) : 6 channels ;Channel positions : Front: L C R, Rear: L R, LFE ;Sampling rate : 48.0 KHz ;Resolution : 16 bits ;Stream size : 234 MiB (14%)



    Nazwa pliku:The Last Legion [2007] [DVDRip] H264_Tadzio_for_ufs_pl.rar
    Ilość plików na koncie:Part 1:147; Part 2:122
    Rozmiar segmentu:7MB
    Wielkość uploadu:Part 1: 1,847 GB; Part 2:847,22 MB
    Ilość mirrorów:9
    Hasło: www.ufs.pl

    Masz problem z programem MoorHunt? Zajrzyj do działu Poradniki & FAQ tego programu.
    Zalecamy pobieranie za pomocą MailShare







    Przepraszamy, ale nie możesz zobaczyć tego tematu. Musisz sie Zarejestrować
    albo Zalogować

    Upload zawiera 10% danych naprawczych!
    Jak korzystać z danych naprawczych? Tutaj znajdziesz poradnik!
    Upload wykonany w MH 0.6.7.2
    Ostatnio edytowane przez Pan Tadeusz ; 01-04-2011 o 21:33





    Member -> UFS Trial -> UFS Kreator -> UFS Elite Kreator -> Moderator-> Retired -> UFS Elite Uploader -> ? ? ?

    Pobrałeś plik? SKOMENTUJ GO! Innym przyda się Twoja opinia.

    W razie problemów z moim uploadem, proszę pisać PW !

  2.    Sponsored Links




  3. #2
    Retired Awatar Freddy
     Info : 
    Dołączył
    Nov 2007
    Skąd
    Zasiedmiogórogrodzie
    Posty
    3,806
     Podziękowania : 
    Podziękował: 243
    Doceniono: 591 razy w 246 postach
     UFS Stats Uploady : 
    Filmy: 179
    Gry: 159
    Programy: 5
    TV's: 143
    Muzyka: 26
    Porno: 52
    Inne: 4
    Małe uploady: 3
     UFS Stats Konta : 
    Gmail: 95
    Inne: 410
     Total Upload : 
    P2M UP: 1538.4 GB
     Total CA : 
    Total CA: 9305 AC
    Freddy jest nieaktywny

    Domyślnie

    niezatwierdzone
    Ostatnio edytowane przez Freddy ; 01-04-2011 o 18:55



    ----


    ----


    100% moich uploadów spakowanych w rarze zawiera dane naprawcze.
    ----

Informacje o wątku

Użytkownicy przeglądający ten wątek

Aktualnie 1 użytkownik(ów) przegląda ten wątek. (0 zarejestrowany(ch) oraz 1 gości)

Uprawnienia umieszczania postów

  • Nie możesz zakładać nowych tematów
  • Nie możesz pisać wiadomości
  • Nie możesz dodawać załączników
  • Nie możesz edytować swoich postów
  •