Aktualizacje seriali
 



Ogłoszenia
UFS - dotacje
Dotacje SMS
Jak korzystać z forumowej szukajki



Pokaż wyniki od 1 do 4 z 4

Wątek: Age of the Dragons [2011][BDRip][ENG]

  1. #1
    Retired Awatar Look
     Info : 
    Dołączył
    Jan 2008
    Posty
    4,495
     Podziękowania : 
    Podziękował: 922
    Doceniono: 20,523 razy w 334 postach
     UFS Stats Uploady : 
    Filmy: 595
    Gry: 59
    Programy: 1
    TV's: 72
    Muzyka: 13
    Porno: 1
    Inne: 4
     UFS Stats Konta : 
    Gmail: 172
    Inne: 121
     Total Upload : 
    P2M UP: 2456.2 GB
     Total CA : 
    Total CA: 8670 AC
    Look jest nieaktywny

    mh Age of the Dragons [2011][BDRip][ENG]

    Age of the Dragons



    Produkcja:USA
    Gatunek: Fantasy,Thriller,Akcja,Sci-Fi
    Data Premiery: (Świat) 2011-03-04,
    Reżyseria:
    Scenariusz:
    Muzyka:
    Zdjęcia:
    Czas trwania:



    Film oparty na powieści "Moby Dick", przedstawiający kapitana Ahaba i jego dzielną ekipę w polowaniu na najstraszliwsze stwory jakie kiedykolwiek istniały - smoki. Ismael, charyzmatyczny harpunnik, dołącza do ekipy w zamian za obietnicę bogactw. Córka Ahaba, Rachel, rujnuje szanse na polowanie. Na dodatek najlepszy harpunnik, Stubbs, pakuje drużynę wprost w smocze łapska...



    "Danny Glover"> - Ahab
    "Vinnie Jones"> - Stubbs
    "Sofia Pernas"> - Rachel









    Format : AVI
    Format/Info : Audio Video Interleave
    File size : 1.14 GiB
    Duration : 1h 34mn
    Overall bit rate : 1 730 Kbps
    Writing application : VirtualDubMod 1.5.10.2 (build 2540/release)
    Writing library : VirtualDub build 32839/release

    Video
    ID : 0
    Format : MPEG-4 Visual
    Format profile : Advanced Simple@L5
    Format settings, BVOP : Yes
    Format settings, QPel : No
    Format settings, GMC : No warppoints
    Format settings, Matrix : Custom
    Codec ID : XVID
    Codec ID/Hint : XviD
    Duration : 1h 34mn
    Bit rate : 1 273 Kbps
    Width : 720 pixels
    Height : 306 pixels
    Display aspect ratio : 2.35:1
    Frame rate : 23.976 fps
    Color space : YUV
    Chroma subsampling : 4:2:0
    Bit depth : 8 bits
    Scan type : Progressive
    Bits/(Pixel*Frame) : 0.241
    Stream size : 861 MiB (74%)
    Writing library : XviD 1.2.1 (UTC 2008-12-04)

    Audio
    ID : 1
    Format : AC-3
    Format/Info : Audio Coding 3
    Mode extension : CM (complete main)
    Codec ID : 2000
    Duration : 1h 34mn
    Bit rate mode : Constant
    Bit rate : 448 Kbps
    Channel(s) : 6 channels
    Channel positions : Front: L C R, Side: L R, LFE
    Sampling rate : 48.0 KHz
    Bit depth : 16 bits
    Stream size : 303 MiB (26%)
    Alignment : Split accross interleaves
    Interleave, duration : 42 ms (1.00 video frame)
    Interleave, preload duration : 500 ms





    Nazwa pliku:Age Of The Dragons 2011 XViD BRRip DTRG.rar
    Ilość plików na koncie:147+30
    Rozmiar segmentu:7mb
    Wielkość uploadu:1,22gb
    Ilość mirrorów:6-9
    Hasło do scalenia: www.ufs.pl

    Masz problem z programem Moorhunt? Zajrzyj do działu Poradniki & FAQ tego programu.
    Zalecamy pobieranie za pomocą MailShare







    Przepraszamy, ale nie możesz zobaczyć tego tematu. Musisz sie Zarejestrować
    albo Zalogować

    Upload zawiera 5% danych naprawczych!
    Jak korzystać z danych naprawczych? Tutaj znajdziesz poradnik!
    Ostatnio edytowane przez Look ; 23-03-2011 o 22:32


    MEMBER > FULL MEMBER > UFS TRIAL > KREATOR > FULL MEMBER > UFS TRIAL > UPLOADER > SUPER UPLOADER > UFS ELITE>MODERATOR>


    +


  2.    Sponsored Links




  3. #2
    Retired Awatar Freddy
     Info : 
    Dołączył
    Nov 2007
    Skąd
    Zasiedmiogórogrodzie
    Posty
    3,806
     Podziękowania : 
    Podziękował: 243
    Doceniono: 590 razy w 246 postach
     UFS Stats Uploady : 
    Filmy: 179
    Gry: 159
    Programy: 5
    TV's: 143
    Muzyka: 26
    Porno: 52
    Inne: 4
    Małe uploady: 3
     UFS Stats Konta : 
    Gmail: 95
    Inne: 410
     Total Upload : 
    P2M UP: 1538.4 GB
     Total CA : 
    Total CA: 9305 AC
    Freddy jest nieaktywny

    Domyślnie

    niezatwierdzone
    Ostatnio edytowane przez Freddy ; 23-03-2011 o 22:39



    ----


    ----


    100% moich uploadów spakowanych w rarze zawiera dane naprawcze.
    ----

  4. #3
    Pedro2405
    Guest
     Podziękowania : 

    Domyślnie

    Wie ktoś czy są napisy do filmu?

    Pytania o cracki, seriale bądź napisy / / Stachu
    Ostatnio edytowane przez Stachu ; 03-12-2011 o 13:13

  5. #4
    UFS Supporter
     Info : 
    Dołączył
    Sep 2007
    Posty
    825
     Podziękowania : 
    Podziękował: 790
    Doceniono: 0 razy w 0 postach
    stopyl jest nieaktywny

    Domyślnie

    w napi-projekcie nie ma niestety

Informacje o wątku

Użytkownicy przeglądający ten wątek

Aktualnie 1 użytkownik(ów) przegląda ten wątek. (0 zarejestrowany(ch) oraz 1 gości)

Uprawnienia umieszczania postów

  • Nie możesz zakładać nowych tematów
  • Nie możesz pisać wiadomości
  • Nie możesz dodawać załączników
  • Nie możesz edytować swoich postów
  •