Aktualizacje seriali
 



Ogłoszenia
UFS - dotacje
Dotacje SMS
Jak korzystać z forumowej szukajki



Pokaż wyniki od 1 do 4 z 4

Wątek: Meteor Apocalypse [2010][DVDRip][AC3][ENG][Napisy PL]

  1. #1
    SuperVIP Awatar adam12
     Info : 
    Dołączył
    Jul 2007
    Posty
    1,674
     Podziękowania : 
    Podziękował: 109
    Doceniono: 397 razy w 206 postach
     UFS Stats Uploady : 
    Filmy: 550
    Gry: 1
    TV's: 4
    Muzyka: 86
    Inne: 4
     UFS Stats Konta : 
    Gmail: 112
    Inne: 46
     Total Upload : 
    P2M UP: 1797.55 GB
     Total CA : 
    Total CA: 2395 AC
    adam12 jest nieaktywny

    mh Meteor Apocalypse [2010][DVDRip][AC3][ENG][Napisy PL]

    Meteor Apocalypse




    Produkcja: USA
    Gatunek: Sci-Fi, Przygodowy
    Data premiery: 23.02.2010 [Świat]
    Reżyseria: Micho Rutare
    Scenariusz: Brian Brinkman, Micho Rutare
    Czas trwania: 88 min.




    Ogromny meteor wybucha w atmosferze ziemi.
    Za trzy dni zostanie zniszczone Los Angeles.
    Zdesperowany ojciec poszukuje córki i żony by je uchronić przed śmiercią.



    Joe Lando ... David Dematti
    Claudia Christian ... Kate Dematti
    Cooper Harris ... Lynn Leigh
    Madison McLaughlin ... Alison DeMatti
    T.J. Lepage ... Mark
    Micho Rutare ... President
    Jon Gale ... National Security Advisor / Peter
    Abby Leigh ... Stratcom Washington
    Ben Daniels ... Stratcom North Atlantic
    Darrell Philip ... Stratcom Wyoming
    Gabrial Bresler ... Young Commander
    Alice M. Brinkman ... Bible Study Friend #1
    Janice McLaughlin ... Bible Study Friend #2
    Brendan Bradley ... Curtis Langley
    Courtney Johnson ... Guard











    General
    Complete name : F:\Meteor Apocalypse 2010 [DVDRip.XviD] [SUB PL].avi\Meteor Apocalypse 2010 [DVDRip.XviD].avi
    Format : AVI
    Format/Info : Audio Video Interleave
    File size : 699 MiB
    Duration : 1h 28mn
    Overall bit rate : 1 110 Kbps
    Movie name : METEOR_APOCALYPSE_2010.Title3.DVDRip
    Writing application : Lavf52.33.0
    Original source form/Name : METEOR_APOCALYPSE_2010

    Video
    ID : 0
    Format : MPEG-4 Visual
    Format profile : Simple@L3
    Format settings, BVOP : No
    Format settings, QPel : No
    Format settings, GMC : No warppoints
    Format settings, Matrix : Default (H.263)
    Codec ID : XVID
    Codec ID/Hint : XviD
    Duration : 1h 28mn
    Bit rate : 651 Kbps
    Width : 704 pixels
    Height : 400 pixels
    Display aspect ratio : 16:9
    Frame rate : 23.976 fps
    Color space : YUV
    Chroma subsampling : 4:2:0
    Bit depth : 8 bits
    Scan type : Progressive
    Bits/(Pixel*Frame) : 0.096
    Stream size : 410 MiB (59%)
    Writing library : XviD 1.2.1 (UTC 2008-12-04)

    Audio
    ID : 1
    Format : AC-3
    Format/Info : Audio Coding 3
    Mode extension : CM (complete main)
    Codec ID : 2000
    Duration : 1h 28mn
    Bit rate mode : Constant
    Bit rate : 448 Kbps
    Channel(s) : 6 channels
    Channel positions : Front: L C R, Side: L R, LFE
    Sampling rate : 48.0 KHz
    Bit depth : 16 bits
    Stream size : 282 MiB (40%)
    Alignment : Aligned on interleaves
    Interleave, duration : 32 ms (0.77 video frame)



    Nazwa pliku: Meteor Apocalypse 2010 [DVDRip.XviD] [SUB PL].adam12 _for_ufs_pl.avi.rar
    Rozmiar Pliku: 755.76 MB
    Rozmiar segmentu: 7.00 MB
    Liczba segmentów: 108
    Liczba mirrorów: 9

    Hasło do scalenia: www.ufs.pl

    Masz problem z programem Moorhunt? Zajrzyj do działu Poradniki & FAQ tego programu.
    Zalecamy pobieranie za pomocą MailShare







    Przepraszamy, ale nie możesz zobaczyć tego tematu. Musisz sie Zarejestrować
    albo Zalogować

    Upload zawiera 10% danych naprawczych!
    Jak korzystać z danych naprawczych? Tutaj znajdziesz poradnik!

  2.    Sponsored Links




  3. #2
    Umyj pachy Awatar Only one
     Info : 
    Dołączył
    Aug 2008
    Skąd
    Poland
    Posty
    4,992
     Podziękowania : 
    Podziękował: 949
    Doceniono: 15,518 razy w 591 postach
     UFS Stats Uploady : 
    Filmy: 534
    Gry: 50
    Programy: 7
    TV's: 49
    Muzyka: 51
    Porno: 5
    Inne: 33
    Małe uploady: 3
     UFS Stats Konta : 
    Gmail: 357
    Inne: 482
     Total Upload : 
    P2M UP: 3286.1 GB
     Total CA : 
    Total CA: 42725 AC
     Total HTTP Upload : 
    HTTP UP: 3.5 GB
    Only one jest nieaktywny

    Domyślnie

    niezatwierdzone
    Ostatnio edytowane przez Only one ; 15-02-2011 o 20:06

    <== KLIKNIJ W DZIĘKUJE ŻEBY ZOBACZYĆ HASHCODE

  4. #3
    Member
     Info : 
    Dołączył
    Sep 2008
    Posty
    1
     Podziękowania : 
    Podziękował: 0
    Doceniono: 0 razy w 0 postach
    DSPl jest nieaktywny

    Domyślnie

    Warto to w ogóle ściągać? Podobał się wam?

  5. #4
    Full Member
     Info : 
    Dołączył
    Jan 2008
    Posty
    659
     Podziękowania : 
    Podziękował: 654
    Doceniono: 0 razy w 0 postach
    matixo20 jest nieaktywny

    Domyślnie

    Bardzo słaby film...

Informacje o wątku

Użytkownicy przeglądający ten wątek

Aktualnie 1 użytkownik(ów) przegląda ten wątek. (0 zarejestrowany(ch) oraz 1 gości)

Podobne wątki

  1. 0.7GB Apocalypse Pompeii [2014][BDRip][ENG][Napisy PL]
    Przez Szatan w dziale HQ (High Quality - Wysoka Jakość)
    Odpowiedzi: 1
    Ostatni post / autor: 24-02-2014, 08:05
  2. 0.7GB Superman/Batman Apocalypse [2010][DVDRip][ENG]
    Przez Only one w dziale HQ (High Quality - Wysoka Jakość)
    Odpowiedzi: 1
    Ostatni post / autor: 11-11-2010, 18:58
  3. 0.7GB Crimson Rivers 2: Angels of the Apocalypse [2004][DVDRip][ENG][Napisy PL]
    Przez WinQ w dziale HQ (High Quality - Wysoka Jakość)
    Odpowiedzi: 4
    Ostatni post / autor: 14-12-2009, 21:12

Uprawnienia umieszczania postów

  • Nie możesz zakładać nowych tematów
  • Nie możesz pisać wiadomości
  • Nie możesz dodawać załączników
  • Nie możesz edytować swoich postów
  •