Aktualizacje seriali
 



Ogłoszenia
UFS - dotacje
Dotacje SMS
Jak korzystać z forumowej szukajki



Pokaż wyniki od 1 do 3 z 3

Wątek: Unstoppable [2010][BDRip][AC3][ENG][Napisy PL]

  1. #1
    SuperVIP Awatar adam12
     Info : 
    Dołączył
    Jul 2007
    Posty
    1,674
     Podziękowania : 
    Podziękował: 109
    Doceniono: 398 razy w 206 postach
     UFS Stats Uploady : 
    Filmy: 550
    Gry: 1
    TV's: 4
    Muzyka: 86
    Inne: 4
     UFS Stats Konta : 
    Gmail: 112
    Inne: 46
     Total Upload : 
    P2M UP: 1797.55 GB
     Total CA : 
    Total CA: 2395 AC
    adam12 jest nieaktywny

    mh Unstoppable [2010][BDRip][AC3][ENG][Napisy PL]

    Unstoppable




    Tytuł filmu: Unstoppable / Niepowstrzymany
    Kraj produkcji: USA
    Reżyseria: Tony Scott
    Scenariusz: Mark Bomback
    Muzyka: Harry Gregson-Williams
    Zdjęcia: Ben Seresin
    Gatunek: Dramat, Thriller, Akcja
    Premiera: 11.11. 2010 (Polska), 26.10. 2010 (Świat)
    Czas trwania: 99 min.




    Spektakularny film akcji w reżyserii mistrza gatunku Tony'ego Scotta.
    Dwukrotny laureat Oscara Denzel Washington w roli pracownika kolei, który usiłuje zapobiec grożącej skażeniem
    na ogromną skalę katastrofie pociągu towarowego, wiozącego trujące i wybuchowe chemikalia.



    Denzel Washington - Frank Barnes
    Chris Pine - Will Colson
    Rosario Dawson - Connie Hooper
    Ethan Suplee - Dewey
    Kevin Dunn - Galvin
    Kevin Corrigan - Inspektor Werner
    Kevin Chapman - Bunny
    Lew Temple - Ned Oldham
    T.J. Miller - Gilleece
    Jessy Schram - Darcy











    Video

    ID : 0
    Format : MPEG-4 Visual
    Format profile : Advanced Simple@L5
    Format settings, BVOP : Yes
    Format settings, QPel : No
    Format settings, GMC : No warppoints
    Format settings, Matrix : Default (H.263)
    Codec ID : XVID
    Codec ID/Hint : XviD
    Duration : 1h 38mn
    Bit rate : 1 667 Kbps
    Width : 720 pixels
    Height : 304 pixels
    Display aspect ratio : 2.35:1
    Frame rate : 23.976 fps
    Color space : YUV
    Chroma subsampling : 4:2:0
    Bit depth : 8 bits
    Scan type : Progressive
    Bits/(Pixel*Frame) : 0.318
    Stream size : 1.15 GiB (78%)
    Writing library : XviD 1.2.1 (UTC 2008-12-04)

    Audio

    ID : 1
    Format : AC-3
    Format/Info : Audio Coding 3
    Mode extension : CM (complete main)
    Codec ID : 2000
    Duration : 1h 38mn
    Bit rate mode : Constant
    Bit rate : 448 Kbps
    Channel(s) : 6 channels
    Channel positions : Front: L C R, Side: L R, LFE
    Sampling rate : 48.0 KHz
    Bit depth : 16 bits
    Stream size : 316 MiB (21%)
    Alignment : Split accross interleaves
    Interleave, duration : 42 ms (1.00 video frame)
    Interleave, preload duration : 500 ms



    Nazwa pliku: Unstoppable.2010.SubPL.BRRip.XviD-PolishET.part1.adam12 _for_ufs_pl.rar
    Rozmiar Pliku: 900,00 MB
    Rozmiar segmentu: 7,00 MB
    Liczba segmentów: 129
    Liczba mirrorów: 9

    Nazwa pliku: Unstoppable.2010.SubPL.BRRip.XviD-PolishET.part2.adam12 _for_ufs_pl.rar
    Rozmiar Pliku: 762,84 MB
    Rozmiar segmentu: 7,00 MB
    Liczba segmentów: 109
    Liczba mirrorów: 9

    Hasło do scalenia: www.ufs.pl

    Masz problem z programem Moorhunt? Zajrzyj do działu Poradniki & FAQ tego programu.
    Zalecamy pobieranie za pomocą MailShare







    Przepraszamy, ale nie możesz zobaczyć tego tematu. Musisz sie Zarejestrować
    albo Zalogować

    Upload zawiera 10% danych naprawczych!
    Jak korzystać z danych naprawczych? Tutaj znajdziesz poradnik!

  2. Liczba osób które doceniły autora: 1


  3.    Sponsored Links




  4. #2
    Impeccable Awatar Kingpin
     Info : 
    Dołączył
    May 2008
    Skąd
    Paris XVII arr
    Posty
    5,331
     Podziękowania : 
    Podziękował: 1,494
    Doceniono: 60,478 razy w 527 postach
     UFS Stats Uploady : 
    Filmy: 607
    Gry: 211
    Programy: 19
    TV's: 22
    Muzyka: 2
    Porno: 12
    Inne: 2
     UFS Stats Konta : 
    Gmail: 20
    Inne: 75
     Total Upload : 
    P2M UP: 3523.05 GB
     Total CA : 
    Total CA: 2080 AC
    Kingpin jest nieaktywny

    Domyślnie

    Ostatnio edytowane przez Kingpin ; 24-01-2011 o 06:58


    מֶלֶך


  5. #3
    Full Member
     Info : 
    Dołączył
    Apr 2008
    Posty
    93
     Podziękowania : 
    Podziękował: 90
    Doceniono: 0 razy w 0 postach
    Arthaspwnz jest nieaktywny

    Domyślnie

    Cytat Zamieszczone przez kaz470 Zobacz posta
    ściągłem obie części i przy rozpakowywaniu żąda 2 woluminu, wie ktoś co jest grane?
    Napraw winrarem archiwa, u mnie pomogło.

Informacje o wątku

Użytkownicy przeglądający ten wątek

Aktualnie 1 użytkownik(ów) przegląda ten wątek. (0 zarejestrowany(ch) oraz 1 gości)

Podobne wątki

  1. Unstoppable [2010][DVDRip][ENG]
    Przez Szynek w dziale HQ (High Quality - Wysoka Jakość)
    Odpowiedzi: 3
    Ostatni post / autor: 19-05-2011, 18:54
  2. 0.7GB Unstoppable [2010][R5][ENG][Napisy PL]
    Przez Pumbek w dziale HQ (High Quality - Wysoka Jakość)
    Odpowiedzi: 1
    Ostatni post / autor: 18-12-2010, 19:45

Uprawnienia umieszczania postów

  • Nie możesz zakładać nowych tematów
  • Nie możesz pisać wiadomości
  • Nie możesz dodawać załączników
  • Nie możesz edytować swoich postów
  •