Aktualizacje seriali
 



Ogłoszenia
UFS - dotacje
Dotacje SMS
Jak korzystać z forumowej szukajki



Pokaż wyniki od 1 do 2 z 2

Wątek: Pitbull [sezon 3][2008][HDTV][PL]

  1. #1
    Prowokator Na Obserwacji xD Awatar Subman
     Info : 
    Dołączył
    Nov 2008
    Skąd
    Będzin
    Posty
    115
     Podziękowania : 
    Podziękował: 4
    Doceniono: 34 razy w 15 postach
     UFS Stats Uploady : 
    Filmy: 4
    Gry: 33
    Programy: 3
    TV's: 5
    Muzyka: 1
    Inne: 1
     UFS Stats Konta : 
    Inne: 1
     Total Upload : 
    P2M UP: 181.5 GB
     Total CA : 
    Total CA: 10 AC
    Subman jest nieaktywny

    Ygoow Pitbull [sezon 3][2008][HDTV][PL]

    Pitbull sezon 3



    Produkcja:Polska
    Gatunek: Kryminalne
    Data Premiery: 1-09-2008
    Reżyseria: Patryk Vega
    Scenariusz: Mariusz Bieliński
    Piotr Subbotko
    Marek Kreutz
    Patryk Vega
    Muzyka: Luka
    Zdjęcia: Mirosław Brożek, Piotr Lenar ( II i III seria )
    Czas trwania: 48min



    Seria trzecia

    Po akcji w Magdalence wiele się zmieniło. Nielat wyjechał do Irlandii i tam za większą kasę też jest "psem". Naczelnik Włodzimierz Barszczyk zostaje zdegradowany do funkcji pracownika operacyjnego w sekcji prowadzonej przez Jacka Goca-"Gebelsa". Chłop ma zapał i chęć do roboty no ale...to tylko Barszczyk. Nowy przybyły naczelnik rzuca kłody pod nogi "Gebelsowi", który z jego powodu odkłada zapowiadane przejście na emeryturę. W dodatku w mieście pojawia się Artak, rosyjski gangster szukający zemsty na zbliżającym się do końca służby policjancie. Despero i Dżemma mają nowy problem. Dżemma po deportacji z Polski musiała wziąć ślub z Polakiem by móc wrócić do Desperskiego. Fikcyjny mąż Dżemmy, Kubuś, nie ma zamiaru dać jej szybkiego rozwodu. Igor poznaje Renatę. Z powodu młodej policjantki, która dzięki jego staraniom trafia do wydziału, ma wiele problemów z Olą, córką brata, którą się opiekuje. Oprócz Renaty nowym pracownikiem zostaje Robert Nimski - "Łapka". "Łapka" to policjant który ma w zwyczaju najpierw strzelać, a dopiero potem myśleć. Podczas jednej akcji zabija niewinnego chłopaka. Od tego momentu psują się jego kontakty z żoną. Łapka ma romans z pracownicą butiku, którego wspomniana żona jest właścicielką. Przez jego głupotę o mały włos nie dochodzi do tragedii. 3 Seria kończy się tym, że "Gebels" w strzelaninie w Galerii Handlowej zabija Artaka, ale jego partnerka Gala zostaje ranna i trafia do szpitala. Despero i Dżemma biorą ślub.



    * Marcin Dorociński: podkomisarz Sławomir Desperski "Despero"
    * Janusz Gajos: młodszy aspirant Zbigniew Chyb "Władek" (seria I)
    * Andrzej Grabowski: starszy aspirant Jacek Goc "Gebels"
    * Paweł Królikowski: Igor Rosłoń (seria II) / Igor Jaworek (seria III)
    * Rafał Mohr: podkomisarz Krzysztof Magiera "Nielat"
    * Krzysztof Stroiński: aspirant Mirosław Saniewski "Metyl"
    * Weronika Rosati: Dżemma
    * Elena Rutkowska: Gala, kobieta Gebelsa
    * Michał Kula: Włodzimierz Barszczyk
    * Joachim Lamża: gangster "Kmieciak"
    * Janusz Chabior: gangster "Ciągły"
    * Włodzimierz Matuszak: komendant policji

    * Redbad Klynstra: Jarosław Nowacki, naczelnik
    * Michał Żurawski: Łapka
    * Anna Prus: żona Łapki
    * Hanna Konarowska: Renata Czyżewska
    * Grzegorz Borek: Kubuś, mąż Dżemmy
    * Dimitrij Piersin: gangster Artak
    * Joanna Szczepkowska: Anna Gromska, Doktor Irena (odcinek 18)
    * Damian Damięcki: ojciec Renaty Czyżewskiej (odcinek 19)
    * Artur Barciś: Zenon Lebioda (odcinek 20)
    * Mateusz Damięcki: Adam Walisz (odcinek 21)
    * Andrzej Zaborski: Włodek, policjant, kolega Gebelsa (odcinek 22)
    * Radosław Krzyżowski: komendant Dworca Centralnego (odcinek 22 i 23)
    * Magdalena Różczka: Alicja (odcinek 26)
    * Weronika Książkiewicz: Ilona (odcinek 28)










    Plik:avi
    Video:xvid
    Audio:mp3



    Nazwa pliku: Pitbull
    Ilość plików na koncie: 1
    Rozmiar segmentu: 7MB
    Wielkość uploadu:
    Ilość mirrorów: 6


    Complete name :Pitbull sezon 3
    Format : AVI
    Format/Info : Audio Video Interleave
    File size : 349 MiB
    Duration : 47mn 39s
    Overall bit rate : 1 025 Kbps
    Writing application : FairUse Wizard - http://fairusewizard.com
    Writing library : The best and REALLY easy backup tool
    Video
    Format : MPEG-4 Visual
    Format profile : Streaming Video@L1
    Format settings, BVOP : Yes
    Format settings, QPel : No
    Format settings, GMC : No warppoints
    Format settings, Matrix : Default
    Muxing mode : Packed bitstream
    Codec ID : XVID
    Codec ID/Hint : XviD
    Duration : 47mn 39s
    Bit rate : 887 Kbps
    Width : 576 pixels
    Height : 320 pixels
    Display aspect ratio : 16/9
    Frame rate : 25.000 fps
    Resolution : 24 bits
    Colorimetry : 4:2:0
    Scan type : Progressive
    Bits/(Pixel*Frame) : 0.193
    Stream size : 302 MiB (87%)
    Writing library : XviD 1.2.0.dev47 (UTC 2006-11-01)
    Audio
    Format : MPEG Audio
    Format version : Version 1
    Format profile : Layer 3
    Codec ID : 55
    Codec ID/Hint : MP3
    Duration : 47mn 39s
    Bit rate mode : Constant
    Bit rate : 128 Kbps
    Minimum bit rate : 128 Kbps
    Channel(s) : 2 channels
    Sampling rate : 48.0 KHz
    Resolution : 16 bits
    Stream size : 43.6 MiB (12%)
    Alignment : Aligned on interleaves
    Interleave, duration : 40 ms (1.00 video frame)
    Interleave, preload duration : 504 ms
    Writing library : LAME3.97b
    Encoding settings : CBRHasło do scalenia: www.ufs.pl

    Masz problem z programem Ygoow? Zajrzyj do działu Poradniki & FAQ tego programu.






    Przepraszamy, ale nie możesz zobaczyć tego tematu. Musisz sie Zarejestrować
    albo Zalogować





    MEMBER -> TRIAL -> UFS UPLOADER -> UFS ELITE ->FULL MEMBER -> UFS UPLOADER -> UFS ELITE-> KTO TO WIE?

  2. Liczba osób które doceniły autora: 2


  3.    Sponsored Links




  4. #2
    Retired Awatar Młody
     Info : 
    Dołączył
    Feb 2008
    Skąd
    Urzejowice
    Posty
    2,285
     Podziękowania : 
    Podziękował: 42
    Doceniono: 319 razy w 96 postach
     UFS Stats Uploady : 
    Filmy: 67
    Gry: 24
    TV's: 34
    Muzyka: 58
    Porno: 2
     UFS Stats Konta : 
    Gmail: 122
    Inne: 237
     Total Upload : 
    P2M UP: 556.7 GB
     Total CA : 
    Total CA: 10670 AC
    Młody jest nieaktywny

    Domyślnie

    niezatwierdzone
    Ostatnio edytowane przez Młody ; 08-11-2010 o 02:49




Informacje o wątku

Użytkownicy przeglądający ten wątek

Aktualnie 1 użytkownik(ów) przegląda ten wątek. (0 zarejestrowany(ch) oraz 1 gości)

Podobne wątki

  1. Pitbull [Sezon 03][2008][DVDRip][PL]
    Przez Diller81 w dziale Pełne Sezony [Dział od rangi Full Member]
    Odpowiedzi: 3
    Ostatni post / autor: 05-12-2011, 23:16

Uprawnienia umieszczania postów

  • Nie możesz zakładać nowych tematów
  • Nie możesz pisać wiadomości
  • Nie możesz dodawać załączników
  • Nie możesz edytować swoich postów
  •