Aktualizacje seriali
 



Ogłoszenia
UFS - dotacje
Dotacje SMS
Jak korzystać z forumowej szukajki



Pokaż wyniki od 1 do 2 z 2

Wątek: Duże dzieci [2010][DVDRip][RMVB][LEK-PL]

  1. #1
    Full Member Awatar Kimarco
     Info : 
    Dołączył
    Jan 2008
    Skąd
    Konin/Wrocław/Poznań
    Posty
    334
     Podziękowania : 
    Podziękował: 289
    Doceniono: 9 razy w 2 postach
     UFS Stats Uploady : 
    Filmy: 4
    Programy: 2
    TV's: 1
     Total Upload : 
    P2M UP: 15.15 GB
    Kimarco jest nieaktywny

    Ygoow Duże dzieci [2010][DVDRip][RMVB][LEK-PL]

    Duże dzieci



    Produkcja:USA
    Gatunek: Komedia
    Data Premiery: (Polska)2010-08-13, (Świat)2010-06-24
    Reżyseria: Dennis Dugan
    Scenariusz: Tim Herlihy, Fred Wolf(więcej...)
    Muzyka: Rupert Gregson-Williams
    Zdjęcia: Theo van de Sande
    Czas trwania: 102 Minut
    Dystrybucja: United International Pictures Sp z o.o.



    W weekend przypadający na święto 4 lipca, pięciu przyjaciół z dzieciństwa spotyka się po 30 latach, aby wziąć udział w pogrzebie ukochanego trenera koszykówki. Wraz z rodzinami zatrzymują się w domku nad jeziorem należącym do zmarłego trenera. Przyjaciele na nowo przeżywają szkolne czasy, nabijają się z siebie i usiłują pokazać dzieciom, że można się bawić tak jak za dawnych czasów.



    Adam Sandler - Lenny Feder
    Chris Rock - Kurt McKenzie
    Rob Schneider - Rob Hilliard
    Kevin James - Eric Lamonsoff
    David Spade - Marcus Higgins
    Maya Rudolph - Deanne McKenzie
    Norm Macdonald - Geezer
    Tim Meadows - Malcolm
    China Anne McClain - Charlotte McKenzie
    Joyce Van Patten - Gloria







    Plik:
    Video:
    C:\Downloads\DUŻE DZIECI 2010 Lektor PL RMVB.rmvb
    General
    Complete name : C:\Downloads\DUŻE DZIECI 2010 Lektor PL RMVB.rmvb
    Format : RealMedia
    File size : 389 MiB
    Duration : 1h 42mn
    Overall bit rate : 522 Kbps
    Video #1
    ID : 1
    Format : RealVideo 4
    Codec ID : RV40
    Codec ID/Info : Based on AVC (H.264), Real Player 9
    Duration : 1h 42mn
    Bit rate : 458 Kbps
    Width : 608 pixels
    Height : 444 pixels
    Display aspect ratio : 4:3
    Frame rate : 23.000 fps
    Resolution : 12 bits
    Bits/(Pixel*Frame) : 0.074
    Stream size : 335 MiB (86%)

    Audio:
    Audio #0
    ID : 0
    Format : Cooker
    Codec ID : cook
    Codec ID/Info : Based on G.722.1, Real Player 6
    Duration : 1h 42mn
    Bit rate : 64.1 Kbps
    Channel(s) : 2 channels
    Sampling rate : 44.1 KHz
    Resolution : 16 bits
    Stream size : 46.9 MiB (12%)



    Nazwa pliku: DUŻE DZIECI 2010 [Lektor PL] [RMVB]_by_Kimarco_for_ufs.pl.rar
    Ilość plików na koncie: 1
    Rozmiar segmentu: 8MB
    Wielkość uploadu: 389MB
    Ilość mirrorów: 7
    Hasło do scalenia: www.ufs.pl

    Masz problem z programem Ygoow? Zajrzyj do działu Poradniki & FAQ tego programu.






    Przepraszamy, ale nie możesz zobaczyć tego tematu. Musisz sie Zarejestrować
    albo Zalogować

    Upload zawiera 1% danych naprawczych!
    Jak korzystać z danych naprawczych? Tutaj znajdziesz poradnik!
    Ostatnio edytowane przez jeep ; 17-10-2015 o 16:13
    Wszystkie problemy z moimi wstawkami, proszę zgłaszać na PW

  2. Liczba osób które doceniły autora: 4


  3.    Sponsored Links




  4. #2
    SuperVIP Pink_ SuperVIP Awatar PoziomeQ
     Info : 
    Dołączył
    Jan 2010
    Posty
    1,186
     Podziękowania : 
    Podziękował: 11
    Doceniono: 298 razy w 111 postach
     UFS Stats Uploady : 
    Filmy: 82
    Gry: 134
    Programy: 9
    TV's: 31
    Muzyka: 18
    Porno: 4
    Inne: 7
    Małe uploady: 1
     UFS Stats Konta : 
    Gmail: 59
    Inne: 13
     Total Upload : 
    P2M UP: 1308.39 GB
     Total CA : 
    Total CA: 2915 AC
    PoziomeQ jest nieaktywny

    Domyślnie

    niezatwierdzone
    Ostatnio edytowane przez PoziomeQ ; 21-10-2010 o 23:08

Informacje o wątku

Użytkownicy przeglądający ten wątek

Aktualnie 1 użytkownik(ów) przegląda ten wątek. (0 zarejestrowany(ch) oraz 1 gości)

Podobne wątki

  1. 0.25GB Dzieci z Bullerbyn [1986][DVDRip][rmvb][Lek-PL]
    Przez Aneta:-) w dziale Filmy RMVB
    Odpowiedzi: 1
    Ostatni post / autor: 19-03-2010, 16:11

Uprawnienia umieszczania postów

  • Nie możesz zakładać nowych tematów
  • Nie możesz pisać wiadomości
  • Nie możesz dodawać załączników
  • Nie możesz edytować swoich postów
  •