Aktualizacje seriali
 



Ogłoszenia
UFS - dotacje
Dotacje SMS
Jak korzystać z forumowej szukajki



Pokaż wyniki od 1 do 5 z 5

Wątek: Predators [2010][R5][ENG][Napisy PL]

  1. #1
    Retired Awatar depciak
     Info : 
    Dołączył
    Sep 2007
    Skąd
    Rzeszów
    Posty
    3,840
     Podziękowania : 
    Podziękował: 3
    Doceniono: 157 razy w 67 postach
     UFS Stats Uploady : 
    Filmy: 94
    Gry: 69
    TV's: 51
    Muzyka: 4
    Porno: 6
    Małe uploady: 2
     UFS Stats Konta : 
    Gmail: 418
    Inne: 174
     Total Upload : 
    P2M UP: 1519.25 GB
     Total CA : 
    Total CA: 21035 AC
    depciak jest nieaktywny

    mh Predators [2010][R5][ENG][Napisy PL]

    Predators



    Produkcja:USA
    Gatunek: Horror | Akcja | Sci-Fi | Przygodowy
    Data Premiery: 2010-07-16 (Polska), 2010-07-07 (Świat)
    Reżyseria: Nimród Antal
    Scenariusz: Jim Thomas (postacie), John Thomas (postacie)
    Czas trwania: 107 minut
    Dystrybucja: Imperial - CinePix
    Ocena: 7.3/10 (ocena z dnia 24.09.2010)



    Grupa składająca się z nieświadomych zagrożenia niewinnych ludzi oraz zabójców wybranych ze względu na swoje umiejętności, musi stanąć do walki z rasą obcych. Pozostawieni w dżungli muszą nauczyć się współpracować i efektywnie zabijać zanim sami skończą jako trofea rasy Predatorów. Od teraz posiadają jeden cel - przetrwać na obcej planecie.


    (Yankee_Notch)



    Adrien Brody - Royce
    Topher Grace - Edwin
    Alice Braga - Isabelle
    Walton Goggins - Stans
    Oleg Taktarov - Nikolai
    Laurence Fishburne - Noland
    Danny Trejo - Cuchillo
    Louis Ozawa Changchien - Hanzo









    Video
    Format : MPEG-4 Visual
    Format profile : Streaming Video@L1
    Format settings, BVOP : Yes
    Format settings, QPel : No
    Format settings, GMC : No warppoints
    Format settings, Matrix : Default
    Muxing mode : Packed bitstream
    Codec ID : XVID
    Codec ID/Hint : XviD
    Duration : 1h 42mn
    Bit rate : 1 716 Kbps
    Width : 720 pixels
    Height : 288 pixels
    Display aspect ratio : 2.500
    Frame rate : 25.000 fps
    Resolution : 24 bits
    Colorimetry : 4:2:0
    Scan type : Progressive
    Bits/(Pixel*Frame) : 0.331
    Stream size : 1.23 GiB (93%)
    Writing library : XviD 50

    Audio
    Format : MPEG Audio
    Format version : Version 1
    Format profile : Layer 3
    Codec ID : 55
    Codec ID/Hint : MP3
    Duration : 1h 42mn
    Bit rate mode : Constant
    Bit rate : 128 Kbps
    Channel(s) : 2 channels
    Sampling rate : 44.1 KHz
    Resolution : 16 bits
    Stream size : 93.9 MiB (7%)
    Alignment : Split accross interleaves
    Interleave, duration : 40 ms (1.00 video frame)
    Interleave, preload duration : 500 ms




    Nazwa pliku: Predators 2010 R5 LiNE XViD - IMAGiNE
    Ilość plików na koncie: 160/35
    Rozmiar segmentu: 7
    Wielkość uploadu: 1,4gb
    Ilość mirrorów: 8
    Hasło do scalenia: www.ufs.pl

    Masz problem z programem Moorhunt? Zajrzyj do działu Poradniki & FAQ tego programu.
    Zalecamy pobieranie za pomocą MailShare







    Przepraszamy, ale nie możesz zobaczyć tego tematu. Musisz sie Zarejestrować
    albo Zalogować


  2.    Sponsored Links




  3. #2
    Gdzie są pieniądze za las?! Awatar Stachu
     Info : 
    Dołączył
    Oct 2007
    Skąd
    Köln
    Posty
    9,414
     Podziękowania : 
    Podziękował: 243
    Doceniono: 37,497 razy w 1,148 postach
     UFS Stats Uploady : 
    Filmy: 892
    Gry: 597
    Programy: 14
    TV's: 297
    Muzyka: 87
    Porno: 69
    Inne: 66
    Małe uploady: 12
     UFS Stats Konta : 
    Gmail: 205
    Inne: 648
     Total Upload : 
    P2M UP: 8184.15 GB
     Total CA : 
    Total CA: 14861 AC
     Total HTTP Upload : 
    HTTP UP: 0.7 GB
    Stachu jest nieaktywny

    Domyślnie

    niezatwierdzone
    Member -> Full Member -> UFS Trial -> UFS Uploader -> UFS Elite -> Moderator -> UFS Elite -> Super Vip -> Elite Kreator -> Elite Uploader -> Super Vip -> Elite Uploader -> Super Vip
    Intel Core i5 2500 3.3GHz
    SilentiumPC
    Asus H61
    Kingston HyperX 16GB DDR3 1600MHz
    Seagate 500GB
    Toshiba 320GB
    Seagate Desktop HDD 2TB
    GoodRam SSD 120GB
    Gigabyte GeForce 1060 6GB XTreme OC
    Nagrywarka Asus
    Thermaltake Modular SE 530W
    Zalman 3 Plus White



  4. #3
    Retired Awatar Młody
     Info : 
    Dołączył
    Feb 2008
    Skąd
    Urzejowice
    Posty
    2,285
     Podziękowania : 
    Podziękował: 42
    Doceniono: 319 razy w 96 postach
     UFS Stats Uploady : 
    Filmy: 67
    Gry: 24
    TV's: 34
    Muzyka: 58
    Porno: 2
     UFS Stats Konta : 
    Gmail: 122
    Inne: 237
     Total Upload : 
    P2M UP: 556.7 GB
     Total CA : 
    Total CA: 10670 AC
    Młody jest nieaktywny

    Domyślnie

    Upload sprawny/Sprawdzony na zgłoszenie




  5. #4
    Gdzie są pieniądze za las?! Awatar Stachu
     Info : 
    Dołączył
    Oct 2007
    Skąd
    Köln
    Posty
    9,414
     Podziękowania : 
    Podziękował: 243
    Doceniono: 37,497 razy w 1,148 postach
     UFS Stats Uploady : 
    Filmy: 892
    Gry: 597
    Programy: 14
    TV's: 297
    Muzyka: 87
    Porno: 69
    Inne: 66
    Małe uploady: 12
     UFS Stats Konta : 
    Gmail: 205
    Inne: 648
     Total Upload : 
    P2M UP: 8184.15 GB
     Total CA : 
    Total CA: 14861 AC
     Total HTTP Upload : 
    HTTP UP: 0.7 GB
    Stachu jest nieaktywny

    Domyślnie

    Jaki problem?
    Member -> Full Member -> UFS Trial -> UFS Uploader -> UFS Elite -> Moderator -> UFS Elite -> Super Vip -> Elite Kreator -> Elite Uploader -> Super Vip -> Elite Uploader -> Super Vip
    Intel Core i5 2500 3.3GHz
    SilentiumPC
    Asus H61
    Kingston HyperX 16GB DDR3 1600MHz
    Seagate 500GB
    Toshiba 320GB
    Seagate Desktop HDD 2TB
    GoodRam SSD 120GB
    Gigabyte GeForce 1060 6GB XTreme OC
    Nagrywarka Asus
    Thermaltake Modular SE 530W
    Zalman 3 Plus White



  6. #5
    Full Member
     Info : 
    Dołączył
    Aug 2008
    Skąd
    Giera?towice
    Posty
    1
     Podziękowania : 
    Podziękował: 0
    Doceniono: 0 razy w 0 postach
    Turas jest nieaktywny

    Domyślnie

    Wszystkie mirrory wyłaczone! Bradzo prosze o poprawke:))

Informacje o wątku

Użytkownicy przeglądający ten wątek

Aktualnie 1 użytkownik(ów) przegląda ten wątek. (0 zarejestrowany(ch) oraz 1 gości)

Uprawnienia umieszczania postów

  • Nie możesz zakładać nowych tematów
  • Nie możesz pisać wiadomości
  • Nie możesz dodawać załączników
  • Nie możesz edytować swoich postów
  •