Aktualizacje seriali
 



Ogłoszenia
UFS - dotacje
Dotacje SMS
Jak korzystać z forumowej szukajki



Pokaż wyniki od 1 do 5 z 5

Wątek: Centurion [2010][DVDRip][ENG]

  1. #1
    Full Member
     Info : 
    Dołączył
    Jun 2007
    Posty
    563
     Podziękowania : 
    Podziękował: 559
    Doceniono: 0 razy w 0 postach
    capslo jest nieaktywny

    mh Centurion [2010][DVDRip][ENG]

    Centurion




    Produkcja:Wielka Brytania
    Gatunek: Przygodowy, Akcja
    Data Premiery: (Świat)2010-02-12,
    Reżyseria:
    Scenariusz: Neil Marshall
    Muzyka: Ilan Eshkeri
    Zdjęcia: Sam McCurdy
    Czas trwania: 130 Minut
    Ocena: 7,3 (ocena z dnia 12.08.2010)



    Oparty na legendzie o IX Legionie - 3-tysięcznej armii niezwyciężonych rzymskich wojowników, która przepada bez śladu - "Centurion" jest opowieścią o ich okrutnym konflikcie z morderczym przeciwnikiem, Piktami. Quintus Dias (Michael Fassbender), rzymski kapral, zostaje uprowadzony przez króla piktyjskiego, Gorlacona. IX Legionowi zostaje powierzone sprowadzenie go do domu i zakończenie dominacji Piktów w Brytanii. Dowodzone przez generała Virilusa (Dominic West) i prowadzone przez więźnia piktyjskiego oraz waleczną kobietę o imieniu Etain (Olga Kurylenko), wojsko maszeruje w kierunku nieprzyjacielskiego terytorium, przez co znajdzie się w środku niebezpiecznej bitwy z tajemniczym wrogiem.



    Michael Fassbender - Quintus Dias
    Noel Clarke - Macros
    David Morrissey - Bothos
    Olga Kurylenko - Etain
    JJ Feild - Thax
    Axelle Carolyn - Aeron
    Riz Ahmed -
    Dave Legeno - Vortix
    Ulrich Thomsen - Gorlacon
    Imogen Poots - Arian




    Uploaded with ImageShack.us



    General
    i
    Format : AVI
    Format/Info : Audio Video Interleave
    File size : 700 MiB
    Duration : 1h 33mn
    Overall bit rate : 1 046 Kbps
    Writing application : Nandub v1.0rc2
    Writing library : Nandub build 1852/release

    Video
    ID : 0
    Format : MPEG-4 Visual
    Format profile : Advanced Simple@L5
    Format settings, BVOP : Yes
    Format settings, QPel : No
    Format settings, GMC : No warppoints
    Format settings, Matrix : Default (H.263)
    Codec ID : XVID
    Codec ID/Hint : XviD
    Duration : 1h 33mn
    Bit rate : 906 Kbps
    Width : 576 pixels
    Height : 240 pixels
    Display aspect ratio : 2.40:1
    Frame rate : 25.000 fps
    Color space : YUV
    Chroma subsampling : 4:2:0
    Bit depth : 8 bits
    Scan type : Progressive
    Bits/(Pixel*Frame) : 0.262
    Stream size : 606 MiB (87%)
    Writing library : XviD 1.2.1 (UTC 2008-12-04)

    Audio
    ID : 1
    Format : MPEG Audio
    Format version : Version 1
    Format profile : Layer 3
    Mode : Joint stereo
    Mode extension : MS Stereo
    Codec ID : 55
    Codec ID/Hint : MP3
    Duration : 1h 33mn
    Bit rate mode : Variable
    Bit rate : 128 Kbps
    Channel(s) : 2 channels
    Sampling rate : 48.0 KHz
    Stream size : 84.8 MiB (12%)
    Alignment : Aligned on interleaves
    Interleave, duration : 24 ms (0.60 video frame)
    Interleave, preload duration : 139 ms
    Writing library : LAME3.90.
    Encoding settings : -m j -V 4 -q 2 -lowpass 17.6 --abr 128





    Nazwa pliku: Centurion_capslo_for_ufs.pl.rar
    Rozmiar Pliku: 699,54 MB
    CRC32: E03E9575
    Rozmiar segmentu: 10,00 MB
    Liczba segmentów: 70
    Liczba mirrorów: 16

    Hasło do scalenia: www.ufs.pl

    Masz problem z programem Moorhunt? Zajrzyj do działu Poradniki & FAQ tego programu.
    Zalecamy pobieranie za pomocą MailShare







    Przepraszamy, ale nie możesz zobaczyć tego tematu. Musisz sie Zarejestrować
    albo Zalogować

    Ostatnio edytowane przez capslo ; 13-08-2010 o 22:40

  2.    Sponsored Links




  3. #2
    SuperVIP Pink_ SuperVIP Awatar PoziomeQ
     Info : 
    Dołączył
    Jan 2010
    Posty
    1,186
     Podziękowania : 
    Podziękował: 11
    Doceniono: 298 razy w 111 postach
     UFS Stats Uploady : 
    Filmy: 82
    Gry: 134
    Programy: 9
    TV's: 31
    Muzyka: 18
    Porno: 4
    Inne: 7
    Małe uploady: 1
     UFS Stats Konta : 
    Gmail: 59
    Inne: 13
     Total Upload : 
    P2M UP: 1308.39 GB
     Total CA : 
    Total CA: 2915 AC
    PoziomeQ jest nieaktywny

    Domyślnie

    niezatwierdzone

  4. #3
    Member
     Info : 
    Dołączył
    Nov 2007
    Posty
    390
     Podziękowania : 
    Podziękował: 380
    Doceniono: 0 razy w 0 postach
    sysek jest nieaktywny

    Domyślnie

    archiwum nie wlasciwy format lub jest uszkodaone :(

  5. #4
    Member
     Info : 
    Dołączył
    Dec 2008
    Posty
    1
     Podziękowania : 
    Podziękował: 0
    Doceniono: 0 razy w 0 postach
    Keyro jest nieaktywny

    Domyślnie

    .rar zmieńcie na .avi ;) u mnie pomogło

  6. #5
    Full Member Awatar Lapa
     Info : 
    Dołączył
    Oct 2008
    Skąd
    legnica
    Posty
    1,500
     Podziękowania : 
    Podziękował: 1,394
    Doceniono: 54 razy w 48 postach
     UFS Stats Konta : 
    Gmail: 134
    Inne: 116
     Total CA : 
    Total CA: 6570 AC
    Lapa jest nieaktywny

    Domyślnie

    Dla osób mających problem z rozpakowaniem czy ze zmianą formatu na AVI .. ściągnięty plik wystarczy przeciągnąć do odtwarzacza multimedialnego np; KM-Player i po wszystkim a jeśli chodzi o problem z pobraniem napisów to wchodzimy na tą stronę http://www.allsubs.org/napisy/napisy...-alli/2425988/ , pobieramy napisy i cieszymy się filmem

Informacje o wątku

Użytkownicy przeglądający ten wątek

Aktualnie 1 użytkownik(ów) przegląda ten wątek. (0 zarejestrowany(ch) oraz 1 gości)

Podobne wątki

  1. Centurion [2010][DVDRip][AC3][ENG]
    Przez eMPeK w dziale HQ (High Quality - Wysoka Jakość)
    Odpowiedzi: 2
    Ostatni post / autor: 17-08-2010, 23:48
  2. Centurion [2010][DVDRip][RMVB][ENG]
    Przez marcin514 w dziale HQ (High Quality - Wysoka Jakość)
    Odpowiedzi: 2
    Ostatni post / autor: 17-08-2010, 21:22

Uprawnienia umieszczania postów

  • Nie możesz zakładać nowych tematów
  • Nie możesz pisać wiadomości
  • Nie możesz dodawać załączników
  • Nie możesz edytować swoich postów
  •